<?xml version="1.0" standalone="no"?>
<!DOCTYPE svg PUBLIC "-//W3C//DTD SVG 1.1//EN" "http://www.w3.org/Graphics/SVG/1.1/DTD/svg11.dtd" >
<svg xmlns="http://www.w3.org/2000/svg">
<metadata>Generated by IcoMoon</metadata>
<defs>
<font id="guapicons" horiz-adv-x="1024">
<font-face units-per-em="1024" ascent="960" descent="-64" />
<missing-glyph horiz-adv-x="1024" />
<glyph unicode="&#x20;" horiz-adv-x="512" d="" />
<glyph unicode="&#xe900;" glyph-name="award" d="M271.36 741.79c13.465 0 24.381 10.916 24.381 24.381s10.916 24.381 24.381 24.381h386.926c13.465 0 24.381-10.916 24.381-24.381s10.916-24.381 24.381-24.381c13.465 0 24.381 10.916 24.381 24.381 0 40.396-32.747 73.143-73.143 73.143h-386.926c-40.396 0-73.143-32.747-73.143-73.143 0-13.465 10.916-24.381 24.381-24.381zM658.286 106.667h-292.571c-13.465 0-24.381-10.916-24.381-24.381s10.916-24.381 24.381-24.381h292.571c13.465 0 24.381 10.916 24.381 24.381s-10.916 24.381-24.381 24.381zM414.476 155.429c0-13.465 10.916-24.381 24.381-24.381h146.286c13.465 0 24.381 10.916 24.381 24.381s-10.916 24.381-24.381 24.381h-146.286c-13.465 0-24.381-10.916-24.381-24.381zM512 202.24c-13.465 0-24.381 10.916-24.381 24.381v88.015c0 0.022 0 0.048 0 0.073 0 6.504-4.548 11.946-10.637 13.319-67.383 15.133-238.293 71.21-233.173 266.257v40.716c0.048 0.31 0.076 0.668 0.076 1.033 0 3.588-2.672 6.551-6.135 7.009l-57.575 0.004c-0.001 0-0.003 0-0.004 0-3.905 0-7.070-3.166-7.070-7.070 0-0.086 0.002-0.171 0.005-0.256 1.805-37.943 17.255-71.976 41.512-97.581 3.579-4.166 5.798-9.719 5.798-15.79 0-13.465-10.916-24.381-24.381-24.381-6.071 0-11.623 2.219-15.891 5.89-34.35 36.187-55.57 85.187-55.8 139.142-0.004 0.277-0.006 0.549-0.006 0.821 0 13.153 5.208 25.089 13.673 33.86 8.796 8.726 20.93 14.127 34.325 14.127 0.099 0 0.198 0 0.297-0.001h73.128c26.93 0 48.762-21.831 48.762-48.762v-48.762c-5.12-162.377 141.166-207.482 204.069-219.429 21.82-5.158 37.806-24.47 37.806-47.515 0-0.438-0.006-0.875-0.017-1.311l0.001-99.41c0-13.465-10.916-24.381-24.381-24.381zM890.392 675.962c-8.857 9.031-21.187 14.629-34.824 14.629-0.1 0-0.2 0-0.3-0.001h-73.127c-26.93 0-48.762-21.831-48.762-48.762v-48.762c0.265-3.79 0.416-8.214 0.416-12.673 0-77.387-45.466-144.155-111.143-175.048-8.605-4.773-13.524-12.663-13.524-21.701 0-6.652 2.664-12.681 6.983-17.080l-0.004 0.004c4.397-4.324 10.432-6.993 17.090-6.993 4.185 0 8.123 1.054 11.565 2.912 82.566 38.633 138.827 121.142 138.827 216.791 0 5.28-0.171 10.521-0.509 15.716l0.037 40.009c0 3.905 3.166 7.070 7.070 7.070h57.539c0.001 0 0.003 0 0.004 0 3.905 0 7.070-3.166 7.070-7.070 0-0.086-0.002-0.171-0.005-0.256-1.805-37.943-17.255-71.976-41.512-97.581-3.579-4.166-5.798-9.719-5.798-15.79 0-13.465 10.916-24.381 24.381-24.381 6.071 0 11.623 2.219 15.891 5.89 34.35 36.187 55.57 85.187 55.8 139.142 0.002 0.212 0.003 0.409 0.003 0.606 0 12.902-5.011 24.634-13.193 33.356z" />
<glyph unicode="&#xe901;" glyph-name="guap-main-en" horiz-adv-x="2528" d="M889.153 548.367c-63.049 16.393-148.402 28.372-242.504 34.204 1.497-24.983 2.601-50.676 3.31-76.841 172.046-11.191 262.995-40.194 290.973-57.848-37.908-24.432-184.34-62.025-428.657-62.025s-391.852 37.672-429.366 61.867c35.308 23.644 169.287 59.266 400.6 62.261 21.031 0.134 38.027 17.214 38.027 38.263 0 21.133-17.131 38.264-38.264 38.264-0.083 0-0.166 0-0.249-0.001h-0.46c-113.252-1.497-482.564-15.762-482.564-138.787 0-132.010 426.529-138.709 512.276-138.709s512.276 6.699 512.276 138.709c-0.552 58.794-77.472 85.589-135.398 100.642zM569.73 310.119c-11.191-172.046-40.194-263.073-57.848-291.051-24.432 37.908-62.025 184.34-62.025 428.657s37.672 391.615 62.419 429.287c23.644-36.569 60.133-176.065 62.104-409.821 0.178-20.974 17.223-37.908 38.222-37.908 0 0 0.001 0 0.001 0v0c20.975 0.177 37.91 17.222 37.91 38.222 0 0.139-0.001 0.278-0.002 0.416-1.103 124.974-12.294 242.009-31.524 329.648-24.432 110.809-58.399 162.431-106.711 162.431-132.010 0-138.709-426.529-138.709-512.276s6.699-512.276 138.709-512.276c58.478 0 85.274 76.92 100.327 134.768 16.235 63.68 28.136 148.954 33.653 243.528-28.057-1.97-54.222-2.995-76.526-3.625zM1889.51 394.92c0-21.763-17.643-39.406-39.406-39.406h-66.123c-21.763 0-39.406 17.643-39.406 39.406v227.214h-81.018v-224.85c0.045-67.911 55.108-122.946 123.025-122.946h61.394c67.917 0 122.98 55.035 123.025 122.942v225.012h-81.491zM2239.355 622.292h-61.394c-67.945 0-123.025-55.080-123.025-123.025v-224.928h81.491v87.56h144.462v-87.56h81.491v225.007c-0.045 67.911-55.108 122.946-123.025 122.946zM2136.427 443.39v58.321c0 21.763 17.643 39.406 39.406 39.406h66.123c21.763 0 39.406-17.643 39.406-39.406v-58.321zM2446.393 622.292h81.491v-348.032h-81.491v348.032zM1483.63 489.021h-115.538c-0.427-0.025-0.926-0.039-1.429-0.039-14.32 0-25.929 11.609-25.929 25.929s11.609 25.929 25.929 25.929c0.503 0 1.002-0.014 1.498-0.043l200.192 0.003v81.491h-200.26c-59.305 0-107.381-48.076-107.381-107.381s48.076-107.381 107.381-107.381h115.223c13.862-0.784 24.807-12.216 24.807-26.205s-10.944-25.421-24.738-26.202l-211.284-0.003v-81.412h211.452c59.283 0 107.341 48.058 107.341 107.341v0.63c0 59.255-48.013 107.297-107.258 107.341z" />
<glyph unicode="&#xe902;" glyph-name="congratulation" d="M663.162 207.116c-10.253-1.738-17.963-10.553-17.963-21.169 0-2.188 0.328-4.3 0.937-6.289l9.469-36.419c0.269-0.946 0.424-2.032 0.424-3.155 0-6.598-5.349-11.947-11.947-11.947-2.425 0-4.68 0.722-6.564 1.963l-111.864 67.751c-4.731 2.889-10.455 4.599-16.579 4.599s-11.848-1.71-16.721-4.679l-112.254-66.723c-1.791-1.129-3.97-1.8-6.306-1.8-6.598 0-11.947 5.349-11.947 11.947 0 1.162 0.166 2.285 0.475 3.347l31.674 125.234c0.576 2.277 0.906 4.892 0.906 7.583 0 9.713-4.303 18.421-11.106 24.322l-100.489 87.318c-2.698 2.208-4.407 5.538-4.407 9.267 0 6.519 5.221 11.818 11.709 11.944l50.724 3.414c11.404 0.557 20.44 9.939 20.44 21.431 0 1.040-0.074 2.064-0.217 3.064l0.013-0.115c-1.137 10.88-10.259 19.288-21.346 19.288-0.382 0-0.761-0.010-1.138-0.030l-106.98-5.849c-16.911-1.062-30.225-15.038-30.225-32.123 0-9.628 4.228-18.268 10.928-24.166l137.788-119.985-43.398-173.105c-0.776-2.632-1.222-5.656-1.222-8.785 0-17.774 14.409-32.183 32.183-32.183 6.632 0 12.796 2.006 17.917 5.445l153.972 92.087 153.356-93.135c4.97-3.299 11.075-5.264 17.639-5.264 17.774 0 32.183 14.409 32.183 32.183 0 2.912-0.387 5.733-1.111 8.415l-22.866 90.228c-2.446 9.357-10.824 16.15-20.789 16.15-1.269 0-2.512-0.11-3.72-0.321zM653.653 285.379c3.718-3.176 8.582-5.109 13.897-5.109s10.179 1.933 13.927 5.134l124.557 107.008c6.319 5.892 10.259 14.266 10.259 23.56 0 16.665-12.666 30.371-28.897 32.017l-179.58 10.983-67.535 170.667c-4.8 11.951-16.291 20.236-29.718 20.236-0.009 0-0.019 0-0.028 0h0.001c-0.008 0-0.018 0-0.027 0-13.427 0-24.918-8.285-29.641-20.021l-61.76-152.839c-0.977-2.366-1.544-5.112-1.544-7.991 0-7.733 4.092-14.511 10.228-18.287l0.093-0.053c3.166-1.945 7-3.097 11.104-3.097 8.922 0 16.572 5.446 19.807 13.195l40.525 100.104c1.727 4.609 6.095 7.831 11.215 7.831s9.489-3.222 11.188-7.748l48.789-123.45c4.628-11.416 15.305-19.474 27.949-20.232l130.283-8.050c6.397-0.255 11.486-5.502 11.486-11.938 0-3.733-1.712-7.066-4.394-9.257l-81.941-70.478c-4.546-3.956-7.403-9.751-7.403-16.213s2.857-12.258 7.377-16.191zM512 691.81c13.465 0 24.381 10.916 24.381 24.381v73.143c0 13.465-10.916 24.381-24.381 24.381s-24.381-10.916-24.381-24.381v-73.143c0-13.465 10.916-24.381 24.381-24.381zM609.524 592.823c13.465 0 24.381 10.916 24.381 24.381v172.13c0 13.465-10.916 24.381-24.381 24.381s-24.381-10.916-24.381-24.381v-172.13c0-13.465 10.916-24.381 24.381-24.381zM707.048 498.225c13.465 0 24.381 10.916 24.381 24.381v266.728c0 13.465-10.916 24.381-24.381 24.381s-24.381-10.916-24.381-24.381v-266.728c0-13.465 10.916-24.381 24.381-24.381zM413.013 592.823c13.465 0 24.381 10.916 24.381 24.381v172.13c0 13.465-10.916 24.381-24.381 24.381s-24.381-10.916-24.381-24.381v-172.13c0-13.465 10.916-24.381 24.381-24.381zM315.49 498.225c13.465 0 24.381 10.916 24.381 24.381v266.728c0 13.465-10.916 24.381-24.381 24.381s-24.381-10.916-24.381-24.381v-266.728c0-13.465 10.916-24.381 24.381-24.381z" />
<glyph unicode="&#xe903;" glyph-name="docs" d="M783.848 740.571l-131.901 93.135c-3.906 2.768-8.769 4.425-14.019 4.425-13.486 0-24.418-10.932-24.418-24.418 0-8.235 4.077-15.518 10.323-19.941l124.419-87.091c4.595-3.211 7.564-8.476 7.564-14.434 0-0.154-0.002-0.308-0.006-0.461v-568.054c0-9.695-7.859-17.554-17.554-17.554h-452.51c-9.695 0-17.554 7.859-17.554 17.554v648.046c0 9.695 7.859 17.554 17.554 17.554h233.082c9.695 0 17.554-7.859 17.554-17.554v-102.4c0-28.008 22.705-50.712 50.712-50.712h119.954c13.465 0 24.381 10.916 24.381 24.381s-10.916 24.381-24.381 24.381h-119.954c-1.077 0-1.95 0.873-1.95 1.95v119.954c0 26.93-21.831 48.762-48.762 48.762h-268.19c-26.93 0-48.762-21.831-48.762-48.762v-682.667c0-26.93 21.831-48.762 48.762-48.762h487.619c26.93 0 48.762 21.831 48.762 48.762v594.895c-0.303 16.092-8.356 30.242-20.573 38.908zM682.667 521.143h-341.333c-13.465 0-24.381-10.916-24.381-24.381s10.916-24.381 24.381-24.381h341.333c13.465 0 24.381 10.916 24.381 24.381s-10.916 24.381-24.381 24.381zM707.048 374.857c0 13.465-10.916 24.381-24.381 24.381h-341.333c-13.465 0-24.381-10.916-24.381-24.381s10.916-24.381 24.381-24.381h341.333c13.465 0 24.381 10.916 24.381 24.381zM341.333 277.333c-13.465 0-24.381-10.916-24.381-24.381s10.916-24.381 24.381-24.381h195.048c13.465 0 24.381 10.916 24.381 24.381s-10.916 24.381-24.381 24.381z" />
<glyph unicode="&#xe904;" glyph-name="exhibition" d="M323.291 173.958l-83.87-73.143c-5.238-4.499-8.535-11.129-8.535-18.53 0-13.466 10.916-24.382 24.382-24.382 6.066 0 11.614 2.215 15.88 5.88l83.838 73.116c5.238 4.499 8.535 11.129 8.535 18.53 0 13.466-10.916 24.382-24.382 24.382-6.066 0-11.614-2.215-15.88-5.88zM487.619 277.333h-291.352c-14.083 0.136-25.464 11.517-25.6 25.587v363.289c0.136 14.083 11.517 25.464 25.587 25.6h218.223c13.465 0 24.381 10.916 24.381 24.381s-10.916 24.381-24.381 24.381h-218.21c-41.013-0.138-74.224-33.349-74.362-74.349v-363.29c0.138-41.013 33.349-74.224 74.349-74.362h291.366v-121.905c0-13.465 10.916-24.381 24.381-24.381s24.381 10.916 24.381 24.381v121.905c0 26.93-21.831 48.762-48.762 48.762zM698.027 173.958c-4.234 3.638-9.782 5.853-15.848 5.853-13.466 0-24.382-10.916-24.382-24.382 0-7.4 3.297-14.031 8.502-18.502l83.903-73.17c4.234-3.638 9.782-5.853 15.848-5.853 13.466 0 24.382 10.916 24.382 24.382 0 7.4-3.297 14.031-8.502 18.502zM827.733 740.571h-291.352v73.143c0 13.465-10.916 24.381-24.381 24.381s-24.381-10.916-24.381-24.381v-73.143c0-26.93 21.831-48.762 48.762-48.762h291.352c14.083-0.136 25.464-11.517 25.6-25.587v-363.289c-0.136-14.083-11.517-25.464-25.587-25.6h-216.272c-13.465 0-24.381-10.916-24.381-24.381s10.916-24.381 24.381-24.381h216.015c0 0 0 0 0 0 41.118 0 74.467 33.263 74.605 74.349v363.289c-0.138 41.013-33.349 74.224-74.349 74.362zM332.312 462.385c8.311 3.487 14.043 11.558 14.043 20.967 0 12.523-10.152 22.674-22.674 22.674-4.897 0-9.431-1.552-13.137-4.191-35.283-19.214-80.875-48.715-70.635-85.042 8.29-29.257 46.324-35.352 81.676-35.352 8.046 0 15.848 0 24.381 0 14.629 0 30.964 2.682 48.762 5.12 27.974-29.555 67.481-47.948 111.283-47.948 73.832 0 135.459 52.258 149.909 121.804 64.538 29.275 125.247 67.553 113.788 107.294-3.657 12.434-14.629 48.762-152.625 29.501-27.963 29.459-67.406 47.786-111.129 47.786-84.562 0-153.112-68.551-153.112-153.112 0-23.073 5.104-44.955 14.244-64.576-12.013-1.145-25.386-2.339-39.038-2.339s-27.026 1.194-40.021 3.482c13.567 13.231 27.722 24.589 43.449 33.495zM502.979 389.242c-16.917 0.086-32.849 4.222-46.901 11.487 22.764 4.605 45.438 9.969 68.844 16.795 11.947 3.413 37.059 10.971 66.804 21.455-18.21-30.204-50.573-50.26-87.672-50.955zM719.97 556.008c-18.515-16.989-40.037-31.088-63.611-41.358-3.667 15.487-8.030 30.037-14.312 43.512 10.069 0.535 21.236 1.375 32.599 1.375 16.307 0 32.21-1.729 47.537-5.013zM399.116 492.617c0 57.833 46.883 104.716 104.716 104.716s104.716-46.883 104.716-104.716v0c-24.213-10.177-55.812-21.227-88.096-30.674-32.131-9.504-64.959-17.449-98.378-23.715-16.445 14.666-22.684 33.772-22.957 54.318z" />
<glyph unicode="&#xe905;" glyph-name="live" d="M428.13 543.33c0-20.198-16.374-36.571-36.571-36.571s-36.571 16.374-36.571 36.571c0 20.198 16.374 36.571 36.571 36.571s36.571-16.374 36.571-36.571zM672.67 543.33c0-20.198-16.374-36.571-36.571-36.571s-36.571 16.374-36.571 36.571c0 20.198 16.374 36.571 36.571 36.571s36.571-16.374 36.571-36.571zM308.663 407.040c-9.407-3.523-15.982-12.438-15.982-22.889 0-3.353 0.677-6.547 1.901-9.455 33.342-86.88 112.58-136.617 217.418-136.617s184.32 50.225 217.722 137.509c1.005 2.569 1.588 5.544 1.588 8.655 0 13.467-10.917 24.384-24.384 24.384-10.356 0-19.204-6.456-22.739-15.562-35.165-91.351-123.424-105.736-172.186-105.736s-136.533 14.385-170.667 105.57c-3.474 9.502-12.436 16.161-22.953 16.161-3.514 0-6.854-0.743-9.873-2.082zM830.903 672.792c-4.505 5.471-11.279 8.932-18.862 8.932-13.465 0-24.381-10.916-24.381-24.381 0-4.651 1.302-8.998 3.563-12.696 38.934-54.629 62.283-122.862 62.283-196.549 0-188.513-152.82-341.333-341.333-341.333s-341.333 152.82-341.333 341.333c0 188.513 152.82 341.333 341.333 341.333 66.16 0 127.924-18.823 180.228-51.406 2.762-2.711 8.245-4.868 14.231-4.868 13.465 0 24.381 10.916 24.381 24.381 0 10.335-6.431 19.169-15.51 22.717-58.253 36.273-128.781 57.746-204.324 57.746-215.444 0-390.095-174.652-390.095-390.095s174.652-390.095 390.095-390.095c215.444 0 390.095 174.652 390.095 390.095 0 84.272-26.722 162.303-72.156 226.081z" />
<glyph unicode="&#xe906;" glyph-name="meeting" d="M555.398 397.288c-15.711 6.339-29.191 13.538-41.776 21.97-7.945 6.604-13.497 17.379-13.497 29.449 0 2.509 0.24 4.962 0.698 7.337 5.569 5.853 10.689 10.486 15.321 14.874 24.381 24.381 39.010 39.497 48.762 119.954 1.606 8.406 2.525 18.075 2.525 27.958 0 37.849-13.476 72.55-35.891 99.568-27.923 28.248-66.831 46.058-109.901 46.553l-7.164 0.001c-42.99-0.605-81.71-18.395-109.696-46.793-22.226-26.779-35.702-61.481-35.702-99.329 0-9.883 0.919-19.552 2.676-28.925 8.87-79.734 22.524-96.557 48.611-118.987 4.632-4.145 9.752-9.021 15.36-15.116 0.419-2.133 0.659-4.586 0.659-7.095 0-12.071-5.552-22.845-14.241-29.908-11.842-7.983-25.323-15.183-39.53-20.97-63.185-27.604-162.172-71.733-162.172-184.129 0-13.465 10.916-24.381 24.381-24.381s24.381 10.916 24.381 24.381c0 79.97 73.143 112.884 130.682 139.215 20.107 7.881 37.475 17.56 53.297 29.216 18.601 15.588 30.753 39.557 30.753 66.363 0 9.946-1.673 19.5-4.752 28.399l-1.279 3.535-2.926 3.413c-7.167 8.192-14.491 15.672-22.214 22.723-17.527 16.287-24.598 24.576-32.887 89.917-1.25 6.236-1.965 13.405-1.965 20.741 0 25.758 8.818 49.457 23.6 68.243 18.772 18.218 44.429 29.868 72.8 30.723l8.209 0.004c28.534-0.859 54.191-12.51 73.167-30.987 14.104-18.342 22.618-41.664 22.618-66.975 0-7.697-0.787-15.21-2.286-22.463-7.191-65.602-15.237-72.428-32.547-89.007-7.939-7.247-15.264-14.726-22.154-22.596l-3.202-3.736-1.463-4.145c-2.896-8.288-4.569-17.843-4.569-27.789 0-26.807 12.152-50.775 31.248-66.696 15.395-11.339 32.846-21.021 51.483-28.342 59.102-26.628 130.538-59.055 132.245-137.318-6.095-6.339-46.080-36.571-243.81-36.571h-8.777c-3.077-0.028-6.715-0.044-10.356-0.044-47.891 0-95.138 2.762-141.588 8.134 4.798-0.425 3.802-0.363 2.792-0.363-12.408 0-22.651-9.268-24.183-21.259-0.12-0.982-0.182-1.978-0.182-2.988 0-12.408 9.268-22.651 21.259-24.183 42.323-5.014 91.205-7.867 140.753-7.867 4.045 0 8.087 0.019 12.123 0.057l7.184-0.005c157.013 0 251.855 18.286 282.331 54.613 6.805 7.463 10.973 17.433 10.973 28.377 0 0.138-0.001 0.276-0.002 0.413-1.219 111.644-100.693 156.017-160.183 182.836zM798.964 378.758c-9.408 3.804-17.429 7.975-24.992 12.799-3.122 2.563-5.498 7.073-5.498 12.138 0 0.233 0.005 0.465 0.015 0.696l7.557 7.038c18.773 17.31 27.55 30.476 33.402 82.164 0.96 5.415 1.509 11.648 1.509 18.010 0 26.878-9.796 51.468-26.012 70.395-19.296 19.912-46.37 32.457-76.376 32.767h-4.934c-30.116-0.442-57.227-12.952-76.782-32.896-16.111-18.798-25.907-43.389-25.907-70.267 0-6.362 0.549-12.596 1.602-18.656 5.759-51.041 14.536-64.207 33.309-81.518 4.081-3.637 7.822-7.378 11.34-11.323 4.625-5.634 11.416-9.115 19.019-9.115 13.465 0 24.381 10.916 24.381 24.381 0 6.39-2.458 12.206-6.481 16.553-4.803 5.472-9.739 10.485-14.946 15.205-9.908 9.16-13.809 12.817-18.197 52.070-0.709 3.538-1.115 7.606-1.115 11.768 0 13.914 4.535 26.768 12.207 37.166 10.392 9.985 24.578 16.4 40.257 16.893l5.215 0.002c15.774-0.495 29.959-6.91 40.49-17.083 7.534-10.209 12.069-23.064 12.069-36.977 0-4.162-0.406-8.23-1.18-12.165-4.323-38.856-8.224-42.513-17.977-51.534-5.355-4.865-10.291-9.878-14.937-15.152l-3.105-3.621-1.463-4.145c-2.178-6.187-3.436-13.321-3.436-20.749 0-19.837 8.974-37.578 23.084-49.386 10.437-7.788 22.257-14.431 34.892-19.462 41.765-18.898 76.142-37.427 79.312-75.462-23.742-10.484-51.429-16.588-80.541-16.588-0.656 0-1.312 0.003-1.967 0.009-13.001-0.474-23.443-11.208-23.443-24.382 0-13.473 10.922-24.396 24.396-24.396 0.3 0 0.599 0.005 0.896 0.016l1.664-0.001c65.829 4.632 103.863 16.579 119.954 37.059 5.013 5.996 8.057 13.788 8.057 22.291 0 0.306-0.004 0.612-0.012 0.916 1.22 76.024-65.584 106.5-105.325 124.542z" />
<glyph unicode="&#xe907;" glyph-name="atom" d="M744.838 444.587c82.164 78.994 129.707 160.427 96.061 213.090-11.459 18.042-36.571 37.79-90.941 36.571-13.050-0.538-23.425-11.248-23.425-24.381 0-13.476 10.924-24.4 24.4-24.4 0.343 0 0.684 0.007 1.024 0.021 24.332-0.002 41.887-4.39 48.713-13.899 14.141-22.187-16.823-82.408-89.966-152.869-16.823 15.36-35.109 30.72-54.126 45.592-3.958 69.251-16.243 134.145-35.913 195.741-33.573 96.587-77.702 118.042-108.666 118.042v0c-56.564 0-97.524-67.535-121.905-162.377-91.916 33.402-170.667 37.79-202.118-8.777-11.947-17.798-20.236-48.762 2.438-97.524 4.020-8.266 12.354-13.862 21.995-13.862 4.566 0 8.84 1.255 12.493 3.44l-0.111-0.062c7.171 4.332 11.891 12.084 11.891 20.939 0 3.821-0.879 7.438-2.446 10.657-10.176 22.286-12.371 40.084-6.032 48.617s42.423 20.48 110.202 1.463c13.166-3.657 27.063-8.533 40.96-13.653-5.252-28.102-9.584-62.639-12.023-97.697-132.8-100.52-230.323-222.425-185.706-291.423 17.604-22.591 44.816-36.984 75.389-36.984 3.934 0 7.813 0.238 11.622 0.701 43.765 1.687 85.422 10.48 124.136 25.236 1.212-16.26 5.113-31.132 9.745-45.030 34.377-102.4 78.507-123.855 109.47-123.855v0c21.455 0 51.444 10.484 79.726 57.295 2.090 3.521 3.325 7.762 3.325 12.292 0 9.715-5.683 18.104-13.906 22.022l-0.147 0.063c-3.045 1.47-6.622 2.329-10.4 2.329-8.933 0-16.743-4.804-20.989-11.969-13.228-21.324-26.15-33.271-37.609-33.271v0c-15.116 0-40.716 24.381-63.147 90.453-4.876 14.385-9.021 29.989-12.922 46.324 24.381 9.996 48.762 21.455 73.143 34.377 46.258-27.217 99.734-50.907 155.98-68.287 30.016-9.162 58.36-13.926 87.715-14.602 3.625-0.426 7.403-0.665 11.237-0.665 28.622 0 54.13 13.329 70.656 34.119 17.452 25.785 24.523 73.328-40.818 160.124-15.975 20.575-32.018 38.86-49.073 56.144zM365.714 462.872c0-5.12 0-9.996 0-15.116s0-7.314 0-10.728l-15.116 13.166zM224.305 264.411c-14.141 22.187 16.823 82.408 90.21 153.112q24.381-22.918 53.882-45.349c2.533-36.921 6.691-70.376 12.548-103.243-84.715-24.269-143.717-25-156.639-4.52zM603.185 562.834l-9.021 7.070-29.989 19.505c11.215 5.364 22.187 10.484 33.158 15.116q3.413-20.724 5.851-41.691zM512 789.333v0c15.116 0 40.716-24.381 63.147-90.453 4.876-14.385 9.021-29.745 12.922-46.080-24.381-9.996-48.762-21.699-73.143-34.621-25.844 14.385-51.688 27.794-77.288 39.010 19.992 83.383 49.981 132.145 74.362 132.145zM427.398 608.183c12.19-5.608 24.381-11.703 36.815-18.042-10.24-6.095-20.48-12.19-30.72-18.773l-12.678-8.29c1.707 15.848 3.901 31.208 6.339 45.105zM427.398 291.23q-3.17 19.992-5.608 41.204l9.021-6.339 29.989-19.749q-18.042-7.314-34.377-14.141zM598.065 287.086c-12.19 5.608-24.381 11.703-36.815 18.042 10.24 6.095 20.724 12.19 30.72 18.53l12.434 8.29c-3.17-14.385-5.12-30.232-7.558-44.13zM609.28 394.362c-13.897-9.752-28.282-19.749-43.642-29.501s-36.571-22.43-54.126-32.183c-17.798 10.484-35.352 21.699-53.15 33.646s-28.038 19.505-41.448 29.745c-2.438 17.798-2.438 34.621-2.438 51.931s0 35.596 1.463 52.663c13.897 9.752 28.282 19.749 43.642 29.501s36.084 21.943 54.126 32.183c17.554-10.484 35.352-21.699 52.907-33.646s28.038-19.749 41.448-29.745c0-16.823 1.463-33.646 1.463-50.956s0-35.352-1.463-52.663zM658.286 458.971l15.36-13.166-15.36-12.678c0 5.12 0 9.996 0 15.116s0 7.070 0 10.728zM794.575 256.366c-8.533-12.678-42.423-20.48-110.202-1.463-13.166 3.657-26.819 8.533-40.716 13.653 5.12 29.989 9.509 68.023 11.947 100.693 18.53 13.897 36.571 28.038 53.394 42.423 16.324-16.17 31.642-33.265 45.905-51.236 42.842-57.016 48.206-91.393 39.672-104.071z" />
<glyph unicode="&#xe908;" glyph-name="sport" d="M865.28 613.79c-3.902 8.577-12.397 14.432-22.259 14.432-13.465 0-24.381-10.916-24.381-24.381 0-3.924 0.927-7.631 2.574-10.915 16.486-34.385 27.554-74.575 30.828-116.948-91.35-6.204-173.479-42.312-236.791-99.006l-69.606 71.028 224.305 224.305c8.758 8.813 14.171 20.959 14.171 34.369 0 0.603-0.011 1.204-0.033 1.802-0.436 14.296-7.037 27.054-17.237 35.695-68.19 59.573-157.925 95.867-256.137 95.867-215.444 0-390.095-174.652-390.095-390.095 0-59.919 13.509-116.682 37.648-167.411 2.604-6.864 11.427-13.276 21.748-13.276 13.465 0 24.381 10.916 24.381 24.381 0 4.305-1.116 8.349-3.074 11.86-15.132 32.108-25.613 69.554-29.334 108.968 92.931 5.961 176.562 42.816 240.618 100.875l65.747-67.338-224.305-224.305c-8.758-8.813-14.171-20.959-14.171-34.369 0-0.603 0.011-1.204 0.033-1.802 0.596-14.261 7.154-26.967 17.245-35.7 68.132-59.391 157.736-95.568 255.791-95.568 215.444 0 390.095 174.652 390.095 390.095 0 60.847-13.931 118.44-38.778 169.764zM170.667 463.604c7.696 175.199 147.114 315.464 321.245 324.476-0.031-22.472-2.917-43.814-7.666-64.444-12.882-53.514-38.335-102.104-73.073-142.477l-72.766 73.591c-3.283 1.756-7.182 2.788-11.321 2.788-13.465 0-24.381-10.916-24.381-24.381 0-4.139 1.032-8.038 2.852-11.453l73.079-73.011c-55.359-49.442-127.628-80.997-207.156-85.056zM445.196 546.987c40.689 46.179 70.754 102.704 85.77 165.090 5.753 24.214 9.251 49.31 10.268 75.043 74.604-5.665 141.253-35.301 193.79-80.799l-223.024-224.676zM512 414.354l69.73-69.73c-56.306-62.805-92.403-144.756-97.478-234.998-75.827 4.865-143.676 34.78-196.976 81.023zM753.371 206.629c-56.85-56.178-133.471-92.459-218.5-97.48 4.007 77.87 34.655 147.803 82.533 202.205l67.944-68.641c4.165-7.824 12.267-13.060 21.593-13.060 13.465 0 24.381 10.916 24.381 24.381 0 9.326-5.236 17.429-12.928 21.529l-68.398 68.331c54.477 47.56 124.978 78.014 202.453 82.368-4.96-86.273-42.058-162.944-99.061-219.616z" />
<glyph unicode="&#xe909;" glyph-name="update" d="M861.379 797.379c-41.691 41.691-132.389-1.707-218.21-60.952-38.39 17.81-83.327 28.199-130.691 28.199-175.048 0-316.952-141.904-316.952-316.952 0-47.234 10.332-92.054 28.859-132.325-58.108-81.413-103.944-174.304-61.765-217.458 10.622-10.017 24.98-16.173 40.776-16.173 1.094 0 2.181 0.030 3.26 0.088 47.149-0.006 112.733 35.59 173.929 77.281 38.54-17.968 83.669-28.451 131.248-28.451 175.048 0 316.952 141.904 316.952 316.952 0 47.708-10.541 92.954-29.42 133.536 57.623 80.698 102.728 174.321 62.012 216.256zM197.242 133.242c-7.314 7.558 0 51.931 53.15 136.29 22.634-32.741 50.155-60.262 81.835-82.201-79.153-52.382-126.209-63.11-134.986-54.089zM780.19 448c-0.116-148.030-120.144-267.987-268.19-267.987-30.263 0-59.354 5.012-86.491 14.252 26.27 17.24 46.993 34.55 65.279 49.91l16.335-16.335c2.639-2.601 6.265-4.206 10.265-4.206 6.713 0 12.37 4.522 14.091 10.686l26.112 97.627c0.29 1.088 0.457 2.338 0.457 3.626 0 8.079-6.549 14.629-14.629 14.629-1.288 0-2.538-0.167-3.728-0.479l-97.422-26.065c-6.267-1.745-10.789-7.403-10.789-14.116 0-4.001 1.606-7.626 4.208-10.267l20.478-20.478c-28.526-24.381-55.101-44.861-79.238-62.171-40.634 23.932-73.592 56.891-96.837 96.266 20.037 30.027 45.393 62.21 76.357 98.781 4.008 4.331 6.466 10.147 6.466 16.537 0 13.465-10.916 24.381-24.381 24.381-7.604 0-14.395-3.481-18.866-8.936-17.345-20.279-40.019-47.342-63.425-77.818-8.504 25.002-13.412 53.803-13.412 83.75 0 148.118 120.073 268.19 268.19 268.19 30.083 0 59.009-4.953 86.007-14.088-38.217-26.995-71.375-55.277-97.463-77.952l-20.968 20.968c-2.639 2.601-6.265 4.206-10.265 4.206-6.713 0-12.37-4.522-14.091-10.686l-26.112-97.627c-0.29-1.088-0.457-2.338-0.457-3.626 0-8.079 6.549-14.629 14.629-14.629 1.288 0 2.538 0.167 3.728 0.479l97.422 26.065c6.267 1.745 10.789 7.403 10.789 14.116 0 4.001-1.606 7.626-4.208 10.267l-13.652 14.139c40.472 35.596 78.019 65.585 111.665 89.966 40.148-24.072 72.691-57.005 95.614-96.244-22.228-33.219-50.509-68.815-85.374-108.556-3.359-4.144-5.393-9.481-5.393-15.294 0-13.465 10.916-24.381 24.381-24.381 6.905 0 13.14 2.871 17.576 7.484 16.83 19.025 44.137 51.208 73.15 88.755 7.746-23.851 12.212-51.295 12.212-79.782 0-1.18-0.008-2.359-0.023-3.535zM773.364 626.956c-22.533 32.521-49.886 59.874-81.354 81.715 74.283 49.454 124.020 64.814 134.748 54.086s-1.95-55.345-53.394-135.802z" />
<glyph unicode="&#xe90a;" glyph-name="guap-main-ru" horiz-adv-x="2564" d="M1260.754 500.682v-225.7h81.453v228.052c0 21.648 17.549 39.198 39.198 39.198h115.947v81.374h-113.673c-67.889 0-122.924-55.035-122.924-122.924zM1790.001 623.606l-81.374-155.223-89.919 155.223h-94.074l139.152-240.36-8.702-15.679c-4.388-8.265-12.941-13.798-22.786-13.798-0.010 0-0.019 0-0.029 0h-57.619v-81.374h57.621c0.039 0 0.086 0 0.133 0 40.895 0 76.432 22.94 94.445 56.654l155.66 294.558zM2111.343 623.606h-54.877c-49.704-0.167-92.671-28.842-113.419-70.523l-145.599-278.258h91.879l33.396 63.814h168.628v-63.814h81.453v287.319c0 33.944-27.517 61.462-61.462 61.462zM1965.371 419.778l50.251 96.034c7.554 15.488 23.164 25.981 41.23 26.027h24.23c5.672 0 10.27-4.598 10.27-10.27v-111.478zM2502.771 623.606h-184.464c-33.944 0-61.462-27.517-61.462-61.462v-286.535h81.453v256.353c0 5.629 4.563 10.191 10.191 10.191h124.178c5.629 0 10.191-4.563 10.191-10.191v-256.196h81.453v286.378c0 33.945-27.517 61.462-61.462 61.462-0.028 0-0.055 0-0.083 0zM889.238 548.346c-63.108 16.463-148.402 28.379-242.555 34.18 1.568-25.008 2.587-50.722 3.293-76.827 172.078-11.211 263.016-40.217 291.004-57.856-37.865-24.459-183.994-62.089-428.979-62.089s-391.585 37.708-429.136 62.168c35.67 23.519 169.412 59.032 400.679 61.932 21.028 0.133 38.022 17.21 38.022 38.257 0 21.129-17.129 38.258-38.258 38.258-0.083 0-0.165 0-0.248-0.001h-0.458c-113.203-1.333-482.602-15.601-482.602-138.368 0-132.018 426.549-138.681 512-138.681s512 6.664 512 138.681c0 58.483-76.906 85.294-134.762 100.346zM569.777 310.103c-11.211-172.47-40.217-263.095-57.856-291.082-24.459 37.865-62.089 183.994-62.089 428.901s37.63 391.35 62.168 429.058c23.44-36.532 60.286-175.684 62.089-409.772 0.178-20.993 17.237-37.943 38.256-37.943 0 0 0.001 0 0.001 0v0c0.024 0 0.052 0 0.080 0 21.129 0 38.257 17.128 38.257 38.257 0 0.138-0.001 0.276-0.002 0.413-1.097 124.941-12.308 242.064-31.358 329.71-24.695 110.773-58.718 162.357-107.323 162.357-131.939 0-138.681-426.549-138.681-512s6.664-512 138.681-512c58.483 0 85.294 76.906 100.346 134.762 16.463 63.187 28.379 148.481 34.18 243.026-28.301-2.038-54.485-3.057-76.749-3.685z" />
<glyph unicode="&#xe90b;" glyph-name="warning" d="M881.615 216.381l-306.225 535.65c-12.843 22.182-36.463 36.865-63.512 36.865s-50.67-14.683-63.325-36.514l-306.169-536c-6.161-10.491-9.8-23.107-9.8-36.572 0-40.396 32.747-73.143 73.143-73.143 0.102 0 0.205 0 0.307 0.001h236.967c13.465 0 24.381 10.916 24.381 24.381s-10.916 24.381-24.381 24.381h-236.983c-0.029 0-0.063 0-0.097 0-13.465 0-24.381 10.916-24.381 24.381 0 4.488 1.213 8.694 3.329 12.306l305.919 536.266c4.271 7.434 12.166 12.36 21.211 12.36s16.94-4.926 21.149-12.242l306.044-536.499c2.054-3.497 3.267-7.702 3.267-12.191 0-13.465-10.916-24.381-24.381-24.381-0.034 0-0.068 0-0.102 0h-232.833c-13.465 0-24.381-10.916-24.381-24.381s10.916-24.381 24.381-24.381h232.838c40.356 0.053 73.050 32.78 73.050 73.143 0 13.366-3.585 25.895-9.847 36.678zM512 569.905c13.465 0 24.381-10.916 24.381-24.381v-180.907c0-13.465-10.916-24.381-24.381-24.381s-24.381 10.916-24.381 24.381v180.907c0 13.465 10.916 24.381 24.381 24.381zM548.571 251.002c0-20.198-16.374-36.571-36.571-36.571s-36.571 16.374-36.571 36.571c0 20.198 16.374 36.571 36.571 36.571s36.571-16.374 36.571-36.571z" />
<glyph unicode="&#xe90c;" glyph-name="science" d="M170.667 448c0-13.465-10.916-24.381-24.381-24.381s-24.381 10.916-24.381 24.381c0 13.465 10.916 24.381 24.381 24.381s24.381-10.916 24.381-24.381zM536.381 448c0-13.465-10.916-24.381-24.381-24.381s-24.381 10.916-24.381 24.381c0 13.465 10.916 24.381 24.381 24.381s24.381-10.916 24.381-24.381zM243.81 343.162v209.676c0 13.465-10.916 24.381-24.381 24.381s-24.381-10.916-24.381-24.381v-209.676c0-13.465 10.916-24.381 24.381-24.381s24.381 10.916 24.381 24.381zM390.095 552.838v-209.676c0-13.465 10.916-24.381 24.381-24.381s24.381 10.916 24.381 24.381v209.676c0 13.465-10.916 24.381-24.381 24.381s-24.381-10.916-24.381-24.381zM292.571 655.238v-414.476c0-13.465 10.916-24.381 24.381-24.381s24.381 10.916 24.381 24.381v414.476c0 13.465-10.916 24.381-24.381 24.381s-24.381-10.916-24.381-24.381zM902.095 448c0-13.465-10.916-24.381-24.381-24.381s-24.381 10.916-24.381 24.381c0 13.465 10.916 24.381 24.381 24.381s24.381-10.916 24.381-24.381zM585.143 552.838v-209.676c0-13.465 10.916-24.381 24.381-24.381s24.381 10.916 24.381 24.381v209.676c0 13.465-10.916 24.381-24.381 24.381s-24.381-10.916-24.381-24.381zM804.571 577.219c-13.465 0-24.381-10.916-24.381-24.381v-209.676c0-13.465 10.916-24.381 24.381-24.381s24.381 10.916 24.381 24.381v209.676c0 13.465-10.916 24.381-24.381 24.381zM682.667 655.238v-414.476c0-13.465 10.916-24.381 24.381-24.381s24.381 10.916 24.381 24.381v414.476c0 13.465-10.916 24.381-24.381 24.381s-24.381-10.916-24.381-24.381z" />
<glyph unicode="&#xe90d;" glyph-name="user" d="M796.77 678.644c-6.25-4.473-10.274-11.709-10.274-19.886 0-5.245 1.656-10.103 4.474-14.080 38.944-54.66 62.293-122.893 62.293-196.58 0-188.513-152.82-341.333-341.333-341.333s-341.333 152.82-341.333 341.333c0 188.513 152.82 341.333 341.333 341.333 66.16 0 127.924-18.823 180.228-51.406 2.762-2.711 8.245-4.868 14.231-4.868 13.465 0 24.381 10.916 24.381 24.381 0 10.335-6.431 19.169-15.51 22.717-58.253 36.273-128.781 57.746-204.324 57.746-215.444 0-390.095-174.652-390.095-390.095s174.652-390.095 390.095-390.095c215.444 0 390.095 174.652 390.095 390.095 0 84.272-26.722 162.303-72.156 226.081-3.684 4.799-10.771 8.636-18.755 8.636-4.967 0-9.588-1.485-13.441-4.036zM658.286 549.669c0 80.791-65.494 146.286-146.286 146.286s-146.286-65.494-146.286-146.286c0-80.791 65.494-146.286 146.286-146.286s146.286 65.494 146.286 146.286zM414.476 549.669c0 53.861 43.663 97.524 97.524 97.524s97.524-43.663 97.524-97.524c0-53.861-43.663-97.524-97.524-97.524s-97.524 43.663-97.524 97.524zM301.592 272.213c4.169-7.81 12.264-13.035 21.58-13.035 4.145 0 8.048 1.034 11.465 2.859 49.212 26.058 107.731 41.394 169.833 41.394 67.646 0 131.042-18.196 185.56-49.961 2.212-1.969 7.193-3.718 12.583-3.718 13.465 0 24.381 10.916 24.381 24.381 0 9.827-5.813 18.295-14.189 22.155-59.97 35.083-131.869 55.762-208.599 55.762-70.482 0-136.888-17.449-195.135-48.263-5.271-3.147-10.283-11.101-10.283-20.225 0-4.151 1.037-8.059 2.867-11.48z" />
<glyph unicode="&#xe90e;" glyph-name="search" d="M390.095 301.714c0.026 0 0.058 0 0.089 0 148.118 0 268.19 120.073 268.19 268.19 0 73.96-29.938 140.927-78.356 189.444-9.766 9.769-20.272 18.806-31.423 27.016-44.381 32.526-99.131 51.73-158.366 51.73-148.118 0-268.19-120.073-268.19-268.19 0-148.070 119.997-268.114 268.049-268.19zM390.095 789.333c0.153 0 0.334 0.001 0.515 0.001 48.31 0 92.944-15.734 129.059-42.357 9.134-6.772 17.73-14.208 25.723-22.243 7.962-8.056 15.323-16.731 21.994-25.939 26.309-36.2 41.822-80.733 41.822-128.89 0-121.187-98.242-219.429-219.429-219.429s-219.429 98.242-219.429 219.429c0 121.187 98.242 219.429 219.429 219.429 0.111 0 0.221 0 0.332 0zM748.495 129.341l-146.286 138.484c-4.242 7.549-12.198 12.566-21.327 12.566-13.465 0-24.381-10.916-24.381-24.381 0-9.509 5.444-17.747 13.386-21.767l145.206-138.304c18.311-18.22 43.558-29.483 71.436-29.483 55.938 0 101.285 45.347 101.285 101.285 0 28.060-11.411 53.455-29.845 71.798l-148.728 141.901c-3.164 1.608-6.9 2.55-10.856 2.55-13.465 0-24.381-10.916-24.381-24.381 0-4.337 1.132-8.409 3.117-11.937l148.173-141.531c9.84-9.912 15.922-23.568 15.922-38.644s-6.081-28.731-15.925-38.647c-9.95-9.326-23.376-15.057-38.139-15.057-15.013 0-28.642 5.926-38.676 15.565zM365.714 693.516c0.173 0.001 0.378 0.001 0.583 0.001 32.522 0 62.566-10.613 86.856-28.564 12.33-9.109 23.203-20.059 32.218-32.448 4.802-6.12 11.709-9.738 19.462-9.738 13.465 0 24.381 10.916 24.381 24.381 0 5.011-1.512 9.669-4.104 13.542-12.378 16.87-26.871 31.364-43.275 43.408-32.432 23.998-72.53 38.18-115.941 38.18-0.063 0-0.127 0-0.19 0-13.455 0-24.371-10.916-24.371-24.381s10.916-24.381 24.381-24.381z" />
<glyph unicode="&#xe90f;" glyph-name="schedule" d="M316.952 813.714v-97.524c0-13.465 10.916-24.381 24.381-24.381s24.381 10.916 24.381 24.381v97.524c0 13.465-10.916 24.381-24.381 24.381s-24.381-10.916-24.381-24.381zM658.286 813.714v-97.524c0-13.465 10.916-24.381 24.381-24.381s24.381 10.916 24.381 24.381v97.524c0 13.465-10.916 24.381-24.381 24.381s-24.381-10.916-24.381-24.381zM363.764 475.55h-15.848l-118.979-207.238c-2.218-3.777-3.528-8.318-3.528-13.166s1.31-9.389 3.595-13.29l8.954-13.041h237.958c9.645 0.049 18.058 5.276 22.607 13.041l6.894 14.265-118.979 206.019-8.777 13.166zM438.857 277.333h-149.943l74.606 129.219zM788.236 471.162h-219.429c-12.792 0-23.162-10.37-23.162-23.162s10.37-23.162 23.162-23.162h219.429c12.792 0 23.162 10.37 23.162 23.162s-10.37 23.162-23.162 23.162zM788.236 276.114h-219.429c-12.792 0-23.162-10.37-23.162-23.162s10.37-23.162 23.162-23.162h219.429c12.792 0 23.162 10.37 23.162 23.162s-10.37 23.162-23.162 23.162zM788.236 373.638h-219.429c-12.792 0-23.162-10.37-23.162-23.162s10.37-23.162 23.162-23.162h219.429c12.792 0 23.162 10.37 23.162 23.162s-10.37 23.162-23.162 23.162zM780.19 789.333c-13.465 0-24.381-10.916-24.381-24.381s10.916-24.381 24.381-24.381c40.396 0 73.143-32.747 73.143-73.143v-487.619c0-40.396-32.747-73.143-73.143-73.143h-536.381c-40.396 0-73.143 32.747-73.143 73.143v390.095h617.57c13.465 0 24.381 10.916 24.381 24.381s-10.916 24.381-24.381 24.381h-617.57v48.762c0 40.396 32.747 73.143 73.143 73.143 13.465 0 24.381 10.916 24.381 24.381s-10.916 24.381-24.381 24.381c-67.326 0-121.905-54.579-121.905-121.905v-487.619c0-67.326 54.579-121.905 121.905-121.905h536.381c67.326 0 121.905 54.579 121.905 121.905v487.619c0 67.326-54.579 121.905-121.905 121.905zM426.667 789.333c-13.465 0-24.381-10.916-24.381-24.381s10.916-24.381 24.381-24.381h170.667c13.465 0 24.381 10.916 24.381 24.381s-10.916 24.381-24.381 24.381z" />
<glyph unicode="&#xe910;" glyph-name="arrow-left" d="M784.335 776.411c-6.994 4.107-15.404 6.533-24.381 6.533s-17.387-2.426-24.611-6.657l-495.678-286.108c-14.63-8.599-24.295-24.261-24.295-42.179s9.665-33.58 24.066-42.055l496.137-286.357c6.994-4.107 15.404-6.533 24.381-6.533 26.913 0 48.733 21.803 48.762 48.709v188.711c0 13.465-10.916 24.381-24.381 24.381s-24.381-10.916-24.381-24.381v-188.709l-495.909 286.232 495.909 286.232v-188.709c0-13.465 10.916-24.381 24.381-24.381s24.381 10.916 24.381 24.381v188.709c-0.019 17.934-9.717 33.599-24.151 42.055z" />
<glyph unicode="&#xe911;" glyph-name="arrow-right" d="M784.335 490.179l-495.909 286.232c-6.994 4.107-15.404 6.533-24.381 6.533-26.913 0-48.733-21.803-48.762-48.709v-188.711c0-13.465 10.916-24.381 24.381-24.381s24.381 10.916 24.381 24.381v188.709l495.909-286.232-495.909-286.232v188.709c0 13.465-10.916 24.381-24.381 24.381s-24.381-10.916-24.381-24.381v-188.709c0.028-26.909 21.849-48.712 48.762-48.712 8.977 0 17.387 2.426 24.611 6.657l495.678 286.108c14.63 8.599 24.295 24.261 24.295 42.179s-9.665 33.58-24.066 42.055z" />
<glyph unicode="&#xe912;" glyph-name="adress" d="M512 838.095c-161.583 0-292.571-130.989-292.571-292.571 0-53.638 29.013-129.707 88.747-232.594 4.396-6.837 11.964-11.301 20.575-11.301 13.465 0 24.381 10.916 24.381 24.381 0 4.132-1.028 8.023-2.841 11.433-67.959 116.897-82.1 177.605-82.1 208.082 0 134.652 109.157 243.81 243.81 243.81s243.81-109.157 243.81-243.81c0-73.143-83.87-231.375-224.305-421.547-4.495-5.948-11.556-9.752-19.505-9.752s-15.009 3.804-19.46 9.691c-23.206 31.269-45.393 62.72-66.361 93.44-4.505 5.624-11.373 9.195-19.074 9.195-13.465 0-24.381-10.916-24.381-24.381 0-4.46 1.198-8.64 3.289-12.237 21.149-31.091 43.823-63.030 67.229-94.969 13.475-18.034 34.768-29.584 58.758-29.584s45.283 11.55 58.621 29.392c87.665 118.439 233.95 334.211 233.95 450.752 0 161.583-130.989 292.571-292.571 292.571zM512 676.45c0.014 0 0.031 0 0.047 0 14.669 0 28.734-2.591 41.76-7.341 1.586-0.607 4.394-1.114 7.32-1.114 13.691 0 24.79 11.099 24.79 24.79 0 10.765-6.861 19.927-16.449 23.352-17.259 6.353-36.993 9.998-57.577 9.998-94.257 0-170.667-76.41-170.667-170.667s76.41-170.667 170.667-170.667c94.257 0 170.667 76.41 170.667 170.667 0 18.933-3.083 37.146-8.774 54.164-2.658 9.092-12.013 16.486-23.096 16.486-13.465 0-24.381-10.916-24.381-24.381 0-3.025 0.551-5.921 1.558-8.593 3.956-11.397 6.272-24.727 6.272-38.598 0-67.326-54.579-121.905-121.905-121.905s-121.905 54.579-121.905 121.905c0 67.244 54.446 121.772 121.659 121.905z" />
<glyph unicode="&#xe913;" glyph-name="mail" d="M780.19 764.952h-536.381c-67.326 0-121.905-54.579-121.905-121.905 0-0.006 0-0.014 0-0.022 0-23.404 11.904-44.027 29.988-56.144l292.815-193.982c19.062-12.941 42.58-20.661 67.901-20.661s48.839 7.72 68.329 20.935l215.588 144.549c7.217 4.322 11.973 12.099 11.973 20.988 0 13.465-10.916 24.381-24.381 24.381-5.528 0-10.626-1.84-14.716-4.94l-215.955-144.779c-11.432-7.755-25.534-12.38-40.716-12.38s-29.284 4.626-40.973 12.545l-292.314 193.664c-5.263 3.401-8.713 9.214-8.777 15.838 0 40.405 32.747 73.152 73.143 73.152h536.381c40.396 0 73.143-32.747 73.143-73.143v-390.095c0-40.396-32.747-73.143-73.143-73.143h-536.381c-40.396 0-73.143 32.747-73.143 73.143v219.429c0 13.465-10.916 24.381-24.381 24.381s-24.381-10.916-24.381-24.381v-219.429c0-67.326 54.579-121.905 121.905-121.905h536.381c67.326 0 121.905 54.579 121.905 121.905v390.095c0 67.326-54.579 121.905-121.905 121.905zM772.632 249.783c13.361 0.137 24.139 11 24.139 24.38 0 7.95-3.805 15.011-9.693 19.462l-94.659 70.018c-4.002 2.985-9.045 4.779-14.507 4.779-13.479 0-24.406-10.927-24.406-24.406 0-8.017 3.866-15.131 9.835-19.581l94.663-69.776c4.024-3.044 9.112-4.876 14.629-4.876zM256.731 254.659l94.598 69.73c6.034 4.495 9.899 11.61 9.899 19.627 0 13.479-10.927 24.406-24.406 24.406-5.462 0-10.505-1.794-14.571-4.825l-94.533-69.683c-6.034-4.495-9.899-11.61-9.899-19.627 0-13.479 10.927-24.406 24.406-24.406 5.462 0 10.505 1.794 14.571 4.825z" />
<glyph unicode="&#xe914;" glyph-name="phone" d="M633.905 838.095h-243.81c-67.326 0-121.905-54.579-121.905-121.905v-536.381c0-67.326 54.579-121.905 121.905-121.905h243.81c67.326 0 121.905 54.579 121.905 121.905v536.381c0 67.326-54.579 121.905-121.905 121.905zM633.905 106.667h-243.81c-40.396 0-73.143 32.747-73.143 73.143v487.619h316.952c13.465 0 24.381 10.916 24.381 24.381s-10.916 24.381-24.381 24.381h-316.952c0 40.396 32.747 73.143 73.143 73.143h243.81c40.396 0 73.143-32.747 73.143-73.143v-414.476h-316.952c-1.779 0.465-3.822 0.731-5.927 0.731-13.465 0-24.381-10.916-24.381-24.381s10.916-24.381 24.381-24.381c2.105 0 4.148 0.267 6.096 0.768l316.783-0.037v-74.606c0-40.396-32.747-73.143-73.143-73.143zM414.476 569.905c0-13.465-10.916-24.381-24.381-24.381s-24.381 10.916-24.381 24.381c0 13.465 10.916 24.381 24.381 24.381s24.381-10.916 24.381-24.381zM536.381 569.905c0-13.465-10.916-24.381-24.381-24.381s-24.381 10.916-24.381 24.381c0 13.465 10.916 24.381 24.381 24.381s24.381-10.916 24.381-24.381zM658.286 569.905c0-13.465-10.916-24.381-24.381-24.381s-24.381 10.916-24.381 24.381c0 13.465 10.916 24.381 24.381 24.381s24.381-10.916 24.381-24.381zM414.476 472.381c0-13.465-10.916-24.381-24.381-24.381s-24.381 10.916-24.381 24.381c0 13.465 10.916 24.381 24.381 24.381s24.381-10.916 24.381-24.381zM536.381 472.381c0-13.465-10.916-24.381-24.381-24.381s-24.381 10.916-24.381 24.381c0 13.465 10.916 24.381 24.381 24.381s24.381-10.916 24.381-24.381zM536.381 178.347c0-13.465-10.916-24.381-24.381-24.381s-24.381 10.916-24.381 24.381c0 13.465 10.916 24.381 24.381 24.381s24.381-10.916 24.381-24.381zM658.286 472.381c0-13.465-10.916-24.381-24.381-24.381s-24.381 10.916-24.381 24.381c0 13.465 10.916 24.381 24.381 24.381s24.381-10.916 24.381-24.381z" />
<glyph unicode="&#xe915;" glyph-name="logo-guap" horiz-adv-x="2755" d="M795.55 530.651c-51.526 12.538-111.761 21.255-173.49 24.291-0.834-24.291 0.385-48.672 0.873-73.053 69.241-2.028 134.938-14.276 196.582-35.282-45.664-15.674-149.527-37.13-307.515-37.13s-262.583 21.455-303.299 38.522c38.522 16.335 133.608 36.571 282.088 38.278 19.854 0.273 35.843 16.431 35.843 36.324 0 0.173-0.001 0.345-0.004 0.517-0.41 19.855-16.623 35.815-36.564 35.815-0.088 0-0.177 0-0.265-0.001h0.014c-110.446-1.219-367.909-14.872-367.909-110.933 0-103.375 298.667-111.421 390.095-111.421s390.095 8.046 390.095 111.421c0 48.762-60.709 70.705-106.545 82.651zM1159.558 507.002v-254.050h91.429v256.731c0 24.237 19.648 43.886 43.886 43.886h130.194v91.185h-127.756c-76.079 0-137.752-61.674-137.752-137.752zM1752.747 644.754l-91.185-174.080-101.181 174.080h-105.082l156.038-268.19-9.752-17.554c-4.751-8.901-13.815-14.95-24.327-15.358l-65.639-0.002v-91.429h64.61c0.121 0 0.264-0.001 0.407-0.001 45.442 0 84.982 25.268 105.337 62.521l174.393 330.257zM2113.097 644.754h-61.196c-0.043 0-0.093 0-0.144 0-55.825 0-104.146-32.127-127.484-78.901l-162.994-312.901h103.131l37.303 73.143h188.952v-73.143h91.429v323.048c-0.139 38.002-30.977 68.754-68.998 68.754 0 0 0 0-0.001 0zM1950.476 416.792l56.32 107.52c8.467 17.419 26.013 29.221 46.319 29.257h27.312c6.329 0 11.459-5.13 11.459-11.459v-125.318zM2551.71 644.754h-206.75c-38.107 0-68.998-30.891-68.998-68.998v-321.097h91.429v287.451c0 6.329 5.13 11.459 11.459 11.459h139.215c6.329 0 11.459-5.13 11.459-11.459v-287.208h91.429v321.097c-0.138 38.002-30.977 68.755-68.998 68.755-0.086 0-0.172 0-0.257 0zM546.621 337.067c-2.291-69.338-14.787-134.995-36.030-196.576-15.657 45.658-37.113 149.521-37.113 307.509s21.455 262.095 38.522 302.811c16.335-39.741 37.303-138.728 38.522-288.67 0-20.198 16.374-36.571 36.571-36.571s36.571 16.374 36.571 36.571c0 0.295 0 0.643 0 0.991 0 87.309-8.877 172.545-25.777 254.854-17.378 79.637-45.416 120.109-85.888 120.109-103.375 0-111.421-298.667-111.421-390.095s8.046-390.095 111.421-390.095c48.762 0 70.705 60.709 82.408 106.545 12.438 51.386 21.151 111.529 24.284 173.144-25.99 0.692-51.103-0.283-72.070-0.527z" />
<glyph unicode="&#xe916;" glyph-name="logo-suai" horiz-adv-x="2706" d="M795.55 530.651c-51.526 12.538-111.761 21.255-173.49 24.291-0.834-24.291 0.385-48.672 0.873-73.053 69.241-2.028 134.938-14.276 196.582-35.282-45.664-15.674-149.527-37.13-307.515-37.13s-262.583 21.455-303.299 38.522c38.522 16.335 133.608 36.571 282.088 38.278 19.854 0.273 35.843 16.431 35.843 36.324 0 0.173-0.001 0.345-0.004 0.517-0.41 19.855-16.623 35.815-36.564 35.815-0.088 0-0.177 0-0.265-0.001h0.014c-110.446-1.219-367.909-14.872-367.909-110.933 0-103.375 298.667-111.421 390.095-111.421s390.095 8.046 390.095 111.421c0 48.762-60.709 70.705-106.545 82.651zM546.621 337.067c-2.291-69.338-14.787-134.995-36.030-196.576-15.657 45.658-37.113 149.521-37.113 307.509s21.455 262.095 38.522 302.811c16.335-39.741 37.303-138.728 38.522-288.67 0-20.198 16.374-36.571 36.571-36.571s36.571 16.374 36.571 36.571c0 0.295 0 0.643 0 0.991 0 87.309-8.877 172.545-25.777 254.854-17.378 79.637-45.416 120.109-85.888 120.109-103.375 0-111.421-298.667-111.421-390.095s8.046-390.095 111.421-390.095c48.762 0 70.705 60.709 82.408 106.545 12.438 51.386 21.151 111.529 24.284 173.144-25.99 0.692-51.103-0.283-72.070-0.527zM1867.825 388.267c0-24.372-19.757-44.13-44.13-44.13h-74.606c-24.372 0-44.13 19.757-44.13 44.13v254.781h-91.672v-252.099c0.277-76.272 62.172-137.996 138.483-137.996 0 0 0.001 0 0.001 0h69.242c76.482 0 138.484 62.001 138.484 138.484v252.83h-91.672zM2261.821 644.267h-69.242c-76.482 0-138.484-62.001-138.484-138.484v-252.83h91.429v97.524h162.621v-97.524h91.672v252.83c0 0 0 0.001 0 0.001 0 76.311-61.724 138.206-137.97 138.483zM2145.524 442.88v65.585c0 24.372 19.757 44.13 44.13 44.13h74.606c24.372 0 44.13-19.757 44.13-44.13v-65.585zM2494.903 644.267h91.672v-392.046h-91.672v392.046zM1410.682 494.324h-130.194c-14.969 1.411-26.589 13.916-26.589 29.135s11.62 27.724 26.472 29.126l225.397 0.009v91.672h-225.28c-4.621 0.621-9.964 0.975-15.389 0.975-67.326 0-121.905-54.579-121.905-121.905s54.579-121.905 121.905-121.905c5.425 0 10.768 0.354 16.005 1.041l129.090-0.066c16.293 0 29.501-13.208 29.501-29.501s-13.208-29.501-29.501-29.501h-237.714v-91.672h238.202c67.326 0 121.905 54.579 121.905 121.905v0c-0.689 66.8-55.001 120.686-121.899 120.686-0.002 0-0.004 0-0.007 0z" />
<glyph unicode="&#xe917;" glyph-name="study" d="M175.299 209.067h11.947c107.609-2.998 206.226-39.131 286.641-98.5 8.201-6.214 20.127-10.778 33.081-11.452 0.848-0.058 1.656-0.088 2.471-0.088s1.623 0.030 2.423 0.088c0.586-0.058 1.394-0.088 2.209-0.088s1.623 0.030 2.423 0.088c13.003 0.675 24.928 5.238 34.678 12.546 78.866 58.275 177.483 94.407 284.389 97.39l12.651 0.016c0.427-0.023 0.927-0.036 1.43-0.036 15.62 0 28.282 12.662 28.282 28.282 0 1.216-0.077 2.414-0.226 3.589l0.014 550.626c-0.603 12.998-11.288 23.308-24.381 23.308-13.479 0-24.406-10.927-24.406-24.406 0-0.386 0.009-0.77 0.027-1.151l-0.002-373.706v-157.501c-109.874-4.604-210.545-40.414-294.396-98.725l1.824 472.972c0.010 0.431 0.015 0.939 0.015 1.448 0 20.916-9.44 39.627-24.292 52.105-1.97 2.161-3.88 4.071-5.886 5.875-80.379 67.691-182.254 112.108-294.063 121.827l-4.429 0.139c-61.44 0-61.44-38.278-61.44-71.68v-501.272c-0.133-1.030-0.209-2.22-0.209-3.429 0-15.62 12.662-28.282 28.282-28.282 0.331 0 0.66 0.006 0.988 0.017zM195.048 764.952h14.141c102.523-9.786 194.11-50.163 267.213-111.776 5.581-4.816 9.929-12.36 11.194-20.909l0.023-471.719c-75.514 52.673-166.968 87.74-265.878 97.342l-26.693 0.182zM600.747 408.99c1.245-0.183 2.683-0.288 4.145-0.288s2.899 0.105 4.305 0.307c10.040 0.010 19 5.298 24.151 13.277l53.463 83.009 44.617-43.642c5.155-4.634 12.009-7.468 19.524-7.468 15.783 0 28.648 12.498 29.236 28.138l0.002 296.038c0 0.040 0 0.088 0 0.136 0 16.158-13.099 29.257-29.257 29.257-2.511 0-4.948-0.316-7.273-0.911-58.029-17.713-108.775-42.629-154.49-74.294-4.914-3.224-9.301-10.742-9.301-19.285 0-13.483 10.93-24.413 24.413-24.413 4.94 0 9.538 1.467 13.38 3.99 32.687 22.325 70.192 42.316 109.846 58.059l3.921-222.2-53.15 51.931-48.762-77.288v105.082c0 13.465-10.916 24.381-24.381 24.381s-24.381-10.916-24.381-24.381v-170.667c-0.015-0.354-0.024-0.769-0.024-1.186 0-12.807 8.299-23.677 19.812-27.524zM260.145 645.242c54.662-15.791 102.401-38.694 145.294-68.144 1.478-0.516 5.219-1.461 9.18-1.461 13.465 0 24.381 10.916 24.381 24.381 0 7.465-3.355 14.147-8.64 18.619-45.818 31.421-98.98 56.471-155.984 72.285-5.359 1.258-7.21 1.47-9.111 1.47-13.787 0-24.964-11.177-24.964-24.964 0-11.887 8.308-21.833 19.433-24.349zM260.145 545.524c54.662-15.791 102.401-38.694 145.294-68.144 2.060-1.369 6.658-2.837 11.598-2.837 13.483 0 24.413 10.93 24.413 24.413 0 8.543-4.388 16.061-11.033 20.423-45.875 31.449-99.037 56.498-156.041 72.313-5.359 1.258-7.21 1.47-9.111 1.47-13.787 0-24.964-11.177-24.964-24.964 0-11.887 8.308-21.833 19.433-24.349zM260.145 446.050c54.661-15.81 102.399-38.71 145.3-68.147 2.054-1.366 6.652-2.834 11.592-2.834 13.483 0 24.413 10.93 24.413 24.413 0 8.543-4.388 16.061-11.033 20.423-45.877 31.44-99.038 56.489-156.038 72.312-5.362 1.259-7.213 1.471-9.114 1.471-13.787 0-24.964-11.177-24.964-24.964 0-11.887 8.308-21.833 19.433-24.349z" />
<glyph unicode="&#xe918;" glyph-name="vk" d="M755.81 553.082c-3.657 9.996-24.381 7.314-24.381 7.314h-73.143c-0.586 0.073-1.264 0.115-1.952 0.115-2.759 0-5.36-0.674-7.648-1.866-2.707-1.963-4.941-4.587-6.438-7.638-8.752-22.49-17.844-41.272-28.21-59.226-31.577-53.291-44.499-56.217-49.862-52.803-12.434 8.046-9.265 32.183-9.265 48.762 0 53.638 8.046 76.069-15.848 81.92-8.835 2.225-18.978 3.502-29.419 3.502-1.658 0-3.308-0.032-4.951-0.096-4.085 0.427-9.105 0.666-14.182 0.666-16.607 0-32.616-2.558-47.655-7.302-7.169-3.84-13.751-12.861-9.851-13.348 8.679-0.804 16.28-4.867 21.67-10.938 4.657-9.18 7.367-19.972 7.367-31.398 0-0.631-0.008-1.26-0.025-1.887s4.39-63.054-9.994-71.1c-9.996-5.364-24.381 5.608-52.663 55.832-8.592 14.831-17.34 32.63-24.949 51.021-2.536 6.409-4.61 9.186-7.201 11.368-3.228 2.211-6.996 3.826-11.056 4.628l-69.921 0.032s-10.484 0-14.385-4.876 0-12.434 0-12.434 54.613-127.512 116.297-191.878c30.249-33.379 73.553-54.449 121.788-55.1l26.448-0.001c5.185 0.57 9.79 2.689 13.438 5.876 2.417 3.387 3.882 7.647 3.882 12.248 0 0.228-0.004 0.456-0.011 0.682s0.001 38.976 17.555 44.828 40.96-37.79 65.341-54.613c7.82-6.314 17.881-10.136 28.834-10.136 1.264 0 2.517 0.051 3.755 0.151l64.934-0.011s34.133 2.194 17.798 28.77c-13.332 21.802-29.537 40.335-48.377 55.77-41.101 38.096-35.737 32.001 13.512 97.83 29.745 40.472 41.691 64.853 38.766 75.337zM796.77 678.644c-6.25-4.473-10.274-11.709-10.274-19.886 0-5.245 1.656-10.103 4.474-14.080 38.944-54.66 62.293-122.893 62.293-196.58 0-188.513-152.82-341.333-341.333-341.333s-341.333 152.82-341.333 341.333c0 188.513 152.82 341.333 341.333 341.333 66.16 0 127.924-18.823 180.228-51.406 2.762-2.711 8.245-4.868 14.231-4.868 13.465 0 24.381 10.916 24.381 24.381 0 10.335-6.431 19.169-15.51 22.717-58.253 36.273-128.781 57.746-204.324 57.746-215.444 0-390.095-174.652-390.095-390.095s174.652-390.095 390.095-390.095c215.444 0 390.095 174.652 390.095 390.095 0 84.272-26.722 162.303-72.156 226.081-3.684 4.799-10.771 8.636-18.755 8.636-4.967 0-9.588-1.485-13.441-4.036z" />
<glyph unicode="&#xe919;" glyph-name="youtube" d="M669.745 601.844c-63.147 4.632-157.745 4.632-157.745 4.632v0s-94.598 0-157.745-4.632c-17.647-0.163-33.573-7.402-45.101-19.013-9.184-12.513-15.517-27.664-17.746-44.117-2.688-22.282-4.278-47.681-4.443-73.417l-0.001-34.363c0.167-25.966 1.757-51.364 4.696-76.349 1.978-13.751 8.311-28.901 17.682-41.684 12.75-11.275 29.773-18.493 48.47-18.986 36.184-3.415 153.213-4.634 153.213-4.634s94.598 0 157.745 4.632c17.647 0.163 33.573 7.402 45.101 19.013 9.184 12.513 15.517 27.664 17.746 44.117 2.688 22.282 4.278 47.681 4.443 73.417l0.001 34.607c-0.167 25.966-1.757 51.364-4.696 76.349-1.978 13.751-8.311 28.901-17.682 41.684-11.115 11.122-26.647 18.31-43.857 18.742zM465.432 389.486v126.781l121.905-63.634zM796.77 678.644c-6.25-4.473-10.274-11.709-10.274-19.886 0-5.245 1.656-10.103 4.474-14.080 38.944-54.66 62.293-122.893 62.293-196.58 0-188.513-152.82-341.333-341.333-341.333s-341.333 152.82-341.333 341.333c0 188.513 152.82 341.333 341.333 341.333 66.16 0 127.924-18.823 180.228-51.406 2.762-2.711 8.245-4.868 14.231-4.868 13.465 0 24.381 10.916 24.381 24.381 0 10.335-6.431 19.169-15.51 22.717-58.253 36.273-128.781 57.746-204.324 57.746-215.444 0-390.095-174.652-390.095-390.095s174.652-390.095 390.095-390.095c215.444 0 390.095 174.652 390.095 390.095 0 84.272-26.722 162.303-72.156 226.081-3.684 4.799-10.771 8.636-18.755 8.636-4.967 0-9.588-1.485-13.441-4.036z" />
<glyph unicode="&#xe91a;" glyph-name="target-employee" d="M658.286 643.048c0 80.791-65.494 146.286-146.286 146.286s-146.286-65.494-146.286-146.286c0-80.791 65.494-146.286 146.286-146.286s146.286 65.494 146.286 146.286zM414.476 643.048c0 53.861 43.663 97.524 97.524 97.524s97.524-43.663 97.524-97.524c0-53.861-43.663-97.524-97.524-97.524s-97.524 43.663-97.524 97.524zM246.979 357.79c4.293-7.344 12.139-12.2 21.12-12.2 4.427 0 8.578 1.18 12.156 3.242 58.922 34.156 129.282 55.433 204.371 58.185l-57.472-195.024c-0.603-2.13-0.949-4.576-0.949-7.103 0-7.398 2.968-14.102 7.779-18.988l58.755-58.998c4.785-4.675 11.338-7.559 18.564-7.559 0.074 0 0.147 0 0.221 0.001 7.397 0.026 14.107 2.999 19.010 7.806l58.997 58.998c4.871 4.893 7.882 11.641 7.882 19.092 0 2.666-0.385 5.242-1.104 7.675l-57.491 192.906c76.306-6.014 145.85-30.459 205.589-68.84 1.931-1.312 6.441-2.721 11.28-2.721 13.467 0 24.384 10.917 24.384 24.384 0 8.628-4.481 16.209-11.243 20.543-75.449 48.181-167.327 76.761-265.88 76.761-90.537 0-175.44-24.12-248.635-66.284-5.238-2.929-10.34-10.943-10.34-20.148 0-4.301 1.114-8.342 3.069-11.85zM512 176.884l-34.133 34.133 34.133 115.078 34.133-114.103z" />
<glyph unicode="&#xe91b;" glyph-name="target-vips" d="M268.19 399.238c-13.465 0-24.381-10.916-24.381-24.381v-97.524c0-81.92 117.76-146.286 268.19-146.286s268.19 64.366 268.19 146.286v97.524c0 13.465-10.916 24.381-24.381 24.381s-24.381-10.916-24.381-24.381v-97.524c0-46.080-90.21-97.524-219.429-97.524s-219.429 51.444-219.429 97.524v97.524c0 13.465-10.916 24.381-24.381 24.381zM859.916 578.682l-335.726 167.741-12.19 5.608-347.916-173.349c-9.31-4.341-15.646-13.621-15.646-24.381s6.337-20.040 15.482-24.312l335.89-167.079 13.166-5.608 97.524 48.762c8.453 3.951 14.204 12.381 14.204 22.156 0 13.465-10.916 24.381-24.381 24.381-4.22 0-8.189-1.072-11.65-2.958l-76.672-38.458-286.72 143.36 286.72 143.604 286.72-143.36-90.21-45.105c-7.901-4.212-13.188-12.399-13.188-21.821 0-13.612 11.035-24.647 24.647-24.647 4.19 0 8.136 1.046 11.592 2.89l129.33 64.789c9.31 4.341 15.646 13.621 15.646 24.381s-6.337 20.040-15.482 24.312z" />
<glyph unicode="&#xe91c;" glyph-name="target-schools" d="M268.19 225.402c-13.465 0-24.381-10.916-24.381-24.381v-94.354c0-26.93 21.831-48.762 48.762-48.762h438.857c26.93 0 48.762 21.831 48.762 48.762v414.476c0 94.257-76.41 170.667-170.667 170.667h-170.667v48.762c1.169 13.702 12.58 24.381 26.485 24.381 0.032 0 0.064 0 0.096 0h98.982c0.033 0 0.072 0 0.111 0 13.953 0 25.418-10.656 26.7-24.274 0.008-13.572 10.924-24.488 24.389-24.488s24.381 10.916 24.381 24.381c-1.352 40.609-34.54 73.029-75.326 73.143h-99.242c-40.797-0.114-73.986-32.534-75.334-73.019l-0.003-48.886c-83.19-12.34-146.295-83.259-146.295-168.917 0-0.615 0.003-1.229 0.010-1.843l-0.001-147.655c0-13.465 10.916-24.381 24.381-24.381s24.381 10.916 24.381 24.381v147.749c0 67.326 54.579 121.905 121.905 121.905h195.048c67.326 0 121.905-54.579 121.905-121.905v-414.476h-438.857v94.354c0 13.465-10.916 24.381-24.381 24.381zM424.472 399.238h175.299c13.465 0 24.381-10.916 24.381-24.381s10.916-24.381 24.381-24.381c13.465 0 24.381 10.916 24.381 24.381 0 40.396-32.747 73.143-73.143 73.143h-175.299c-40.396 0-73.143-32.747-73.143-73.143v-149.455c0-40.396 32.747-73.143 73.143-73.143h175.299c40.396 0 73.143 32.747 73.143 73.143 0 13.465-10.916 24.381-24.381 24.381s-24.381-10.916-24.381-24.381c0-13.465-10.916-24.381-24.381-24.381h-175.299c-13.465 0-24.381 10.916-24.381 24.381v149.455c0 13.465 10.916 24.381 24.381 24.381z" />
<glyph unicode="&#xe91d;" glyph-name="target-abits" d="M783.848 740.571l-131.901 93.135c-3.906 2.768-8.769 4.425-14.019 4.425-13.486 0-24.418-10.932-24.418-24.418 0-8.235 4.077-15.518 10.323-19.941l131.977-92.211v-594.895h-487.619v682.667h243.81v-119.954c0.138-27.952 22.76-50.575 50.699-50.712h119.967c13.465 0 24.381 10.916 24.381 24.381s-10.916 24.381-24.381 24.381h-119.954c-1.077 0-1.95 0.873-1.95 1.95v119.954c0 26.93-21.831 48.762-48.762 48.762h-243.81c-26.93 0-48.762-21.831-48.762-48.762v-682.667c0-26.93 21.831-48.762 48.762-48.762h487.619c26.93 0 48.762 21.831 48.762 48.762v594.895c-0.303 16.092-8.356 30.242-20.573 38.908zM655.36 350.476c-0.078-80.733-65.542-146.15-146.286-146.15-80.791 0-146.286 65.494-146.286 146.286s65.494 146.286 146.286 146.286c16.211 0 31.807-2.637 46.381-7.506 0.972-0.295 3.275-0.637 5.658-0.637 13.465 0 24.381 10.916 24.381 24.381 0 10.441-6.563 19.348-15.788 22.823-18.223 6.148-39.017 9.664-60.633 9.664-107.722 0-195.048-87.326-195.048-195.048s87.326-195.048 195.048-195.048c107.687 0 194.991 87.269 195.048 194.942 0 13.471-10.916 24.386-24.381 24.386s-24.381-10.916-24.381-24.381zM696.808 514.072c-4.407 4.382-10.481 7.090-17.189 7.090s-12.782-2.708-17.19-7.091l-177.248-177.248-48.762 48.762c-4.236 3.644-9.788 5.863-15.859 5.863-13.465 0-24.381-10.916-24.381-24.381 0-6.071 2.219-11.623 5.89-15.891l65.314-65.309c4.859-4.885 11.585-7.908 19.017-7.908s14.159 3.023 19.016 7.907l192.855 192.855c4.261 4.385 6.887 10.377 6.887 16.983 0 7.315-3.221 13.877-8.322 18.346z" />
<glyph unicode="&#xe91e;" glyph-name="fax" d="M811.398 687.665c-1.662 0.404-3.57 0.636-5.532 0.636-13.465 0-24.381-10.916-24.381-24.381 0-10.915 7.173-20.155 17.062-23.263 31.83-8.539 54.761-36.964 54.786-70.749v-390.098c0-40.396-32.747-73.143-73.143-73.143h-536.381c-40.396 0-73.143 32.747-73.143 73.143v390.095c0 0.020 0 0.043 0 0.066 0 33.986 23.18 62.558 54.592 70.77 11.132 2.918 18.836 12.44 18.836 23.763 0 13.488-10.934 24.422-24.422 24.422-2.166 0-4.266-0.282-6.266-0.811-52.95-13.893-91.502-61.474-91.502-118.058 0-0.053 0-0.106 0-0.159v-390.087c0-67.326 54.579-121.905 121.905-121.905h536.381c67.326 0 121.905 54.579 121.905 121.905v390.095c-0.039 56.197-38.098 103.493-89.843 117.562zM243.81 399.238c-13.465 0-24.381-10.916-24.381-24.381s10.916-24.381 24.381-24.381h536.381c13.465 0 24.381 10.916 24.381 24.381s-10.916 24.381-24.381 24.381h-48.762v304.274l-128.975 127.512c-4.236 3.644-9.788 5.863-15.859 5.863-13.465 0-24.381-10.916-24.381-24.381 0-6.071 2.219-11.623 5.89-15.891l114.563-114.802v-282.575h-341.333v390.095h146.286v-121.905c0-14.812 12.007-26.819 26.819-26.819h117.516c13.465 0 24.381 10.916 24.381 24.381s-10.916 24.381-24.381 24.381h-95.573v121.905c0 14.812-12.007 26.819-26.819 26.819h-190.171c-14.812 0-26.819-12.007-26.819-26.819v-412.038zM341.333 251.002c0-13.465-10.916-24.381-24.381-24.381s-24.381 10.916-24.381 24.381c0 13.465 10.916 24.381 24.381 24.381s24.381-10.916 24.381-24.381zM437.882 251.002c0-13.465-10.916-24.381-24.381-24.381s-24.381 10.916-24.381 24.381c0 13.465 10.916 24.381 24.381 24.381s24.381-10.916 24.381-24.381zM536.381 251.002c0-13.465-10.916-24.381-24.381-24.381s-24.381 10.916-24.381 24.381c0 13.465 10.916 24.381 24.381 24.381s24.381-10.916 24.381-24.381zM635.368 591.116h-245.272c-13.465 0-24.381-10.916-24.381-24.381s10.916-24.381 24.381-24.381h246.248c13.465 0 24.381 10.916 24.381 24.381s-10.916 24.381-24.381 24.381zM635.368 496.762h-245.272c-13.465 0-24.381-10.916-24.381-24.381s10.916-24.381 24.381-24.381h246.248c13.465 0 24.381 10.916 24.381 24.381s-10.916 24.381-24.381 24.381z" />
<glyph unicode="&#xe91f;" glyph-name="conference" d="M195.048 326.095h51.444c13.465 0 24.381 10.916 24.381 24.381s-10.916 24.381-24.381 24.381h-51.444c-13.465 0-24.381 10.916-24.381 24.381v365.714c0 13.465 10.916 24.381 24.381 24.381h463.238c13.465 0 24.381-10.916 24.381-24.381v-365.714c0-13.465-10.916-24.381-24.381-24.381h-280.381l-151.406-156.038c-2.924-3.973-4.68-8.963-4.68-14.363 0-13.465 10.916-24.381 24.381-24.381 5.645 0 10.842 1.918 14.974 5.139l136.967 140.881h260.145c40.396 0 73.143 32.747 73.143 73.143v365.714c0 40.396-32.747 73.143-73.143 73.143h-463.238c-40.396 0-73.143-32.747-73.143-73.143v-365.714c0-40.396 32.747-73.143 73.143-73.143zM842.362 594.286h-37.79c-13.465 0-24.381-10.916-24.381-24.381s10.916-24.381 24.381-24.381h37.79c6.059 0 10.971-4.912 10.971-10.971v-270.629c0-6.059-4.912-10.971-10.971-10.971h-62.171v-73.143l-71.436 73.143h-210.164c-6.059 0-10.971 4.912-10.971 10.971 0 13.465-10.916 24.381-24.381 24.381s-24.381-10.916-24.381-24.381c0-32.99 26.744-59.733 59.733-59.733h190.171l91.429-93.135c5.159-4.652 12.026-7.498 19.558-7.498 15.537 0 28.245 12.111 29.2 27.407l0.004 73.227h13.166c0.072 0 0.158 0 0.244 0 32.99 0 59.733 26.744 59.733 59.733 0 0 0 0 0 0v270.629c0 32.99-26.744 59.733-59.733 59.733zM268.19 643.048h316.952c13.465 0 24.381 10.916 24.381 24.381s-10.916 24.381-24.381 24.381h-316.952c-13.465 0-24.381-10.916-24.381-24.381s10.916-24.381 24.381-24.381zM268.19 521.143h170.667c13.465 0 24.381 10.916 24.381 24.381s-10.916 24.381-24.381 24.381h-170.667c-13.465 0-24.381-10.916-24.381-24.381s10.916-24.381 24.381-24.381z" />
<glyph unicode="&#xe920;" glyph-name="win-1" d="M195.048 374.857c0-0.128 0-0.28 0-0.432 0-68.302 21.739-131.527 58.674-183.133 3.834-4.013 10.292-7.12 17.475-7.12 13.465 0 24.381 10.916 24.381 24.381 0 4.302-1.114 8.344-3.070 11.852-31.2 43.172-49.94 97.311-49.94 155.826 0 148.118 120.073 268.19 268.19 268.19s268.19-120.073 268.19-268.19c0-148.118-120.073-268.19-268.19-268.19-51.556 0-99.714 14.548-140.594 39.762-3.050 2.886-8.532 5.043-14.519 5.043-13.465 0-24.381-10.916-24.381-24.381 0-10.335 6.431-19.169 15.51-22.717 47.173-29.171 104.182-46.426 165.222-46.426 175.048 0 316.952 141.904 316.952 316.952s-141.904 316.952-316.952 316.952c-175.048 0-316.952-141.904-316.952-316.952 0-0.498 0.001-0.997 0.003-1.495zM512 185.417c13.465 0 24.381 10.916 24.381 24.381v315.733c0.001 0.073 0.001 0.159 0.001 0.245 0 16.562-13.426 29.989-29.989 29.989-0.086 0-0.172 0-0.258-0.001-0.191 0.006-0.432 0.009-0.673 0.009-4.575 0-8.875-1.178-12.613-3.247l-81.298-41.136c-6.545-3.483-10.933-10.246-10.971-18.037 0-0.007 0-0.009 0-0.011 0-11.005 8.784-19.958 19.723-20.23 0.295-0.014 0.611-0.022 0.929-0.022 3.24 0 6.287 0.821 8.947 2.265l57.44 31.159v-296.472c-0.001-0.072-0.001-0.158-0.001-0.244 0-13.465 10.916-24.381 24.381-24.381 0 0 0.001 0 0.001 0zM338.408 823.71c-8.834 8.885-21.066 14.385-34.582 14.385-0.014 0-0.027 0-0.041 0h-75.823c-26.842-0.116-48.557-21.903-48.557-48.761 0-13.414 5.417-25.564 14.182-34.38l80.211-80.211c4.236-3.644 9.788-5.863 15.859-5.863 13.465 0 24.381 10.916 24.381 24.381 0 6.071-2.219 11.623-5.89 15.891l-80.186 80.181h75.825l66.072-66.072c4.236-3.644 9.788-5.863 15.859-5.863 13.465 0 24.381 10.916 24.381 24.381 0 6.071-2.219 11.623-5.89 15.891zM714.118 674.499c4.407-4.382 10.481-7.090 17.189-7.090s12.782 2.708 17.19 7.091l80.456 80.456c8.763 8.814 14.18 20.963 14.18 34.378 0 26.858-21.715 48.645-48.546 48.761h-75.836c-13.442-0.058-25.59-5.547-34.375-14.382l-66.075-65.831c-3.644-4.236-5.863-9.788-5.863-15.859 0-13.465 10.916-24.381 24.381-24.381 6.071 0 11.623 2.219 15.891 5.89l66.040 65.802h75.825l-80.213-80.213c-4.528-4.43-7.335-10.603-7.335-17.431 0-6.708 2.709-12.783 7.092-17.191z" />
<glyph unicode="&#xe921;" glyph-name="win-2" d="M337.92 138.362c-2.289-3.646-3.647-8.078-3.647-12.827 0-8.773 4.634-16.464 11.588-20.759 47.267-29.429 104.517-46.841 165.834-46.841 175.048 0 316.952 141.904 316.952 316.952s-141.904 316.952-316.952 316.952c-175.048 0-316.952-141.904-316.952-316.952 0-68.543 21.758-132.005 58.743-183.854 3.821-5.267 11.049-9.281 19.215-9.281 13.469 0 24.389 10.919 24.389 24.389 0 5.304-1.693 10.212-4.568 14.214-31.213 43.224-49.953 97.362-49.953 155.877 0 148.118 120.073 268.19 268.19 268.19s268.19-120.073 268.19-268.19c0-148.118-120.073-268.19-268.19-268.19-51.556 0-99.714 14.548-140.594 39.762-2.372 1.439-6.626 2.682-11.17 2.682-8.949 0-16.772-4.822-21.013-12.009zM620.983 442.392c0 66.56-46.568 102.888-113.615 102.888-34.385-0.020-66.656-9.059-94.578-24.879-5.498-3.221-9.772-10.082-9.772-17.942 0-0.032 0-0.063 0-0.095 0.137-11.336 9.362-20.477 20.722-20.477 0.086 0 0.172 0.001 0.258 0.002 3.749 0.089 7.262 1.072 10.348 2.742 21.173 14.068 47.030 22.979 74.875 24.308 2.147 0.213 4.241 0.327 6.362 0.327 31.913 0 57.783-25.87 57.783-57.783 0-2.431-0.15-4.827-0.442-7.179 0.028-56.039-40.932-86.271-157.229-194.766-5.343-5.021-8.696-12.107-8.777-19.977-0.030-0.439-0.046-0.933-0.046-1.432 0-11.984 9.715-21.699 21.699-21.699 1.922 0 3.786 0.25 5.561 0.719l165.639-0.034c1.464-0.539 3.154-0.851 4.917-0.851 8.079 0 14.629 6.549 14.629 14.629 0 0.385-0.015 0.767-0.044 1.145 0.003 10.678-9.262 19.455-19.502 33.839h-117.272c88.015 77.288 138.484 116.541 138.484 186.514zM465.432 238.080c3.429 2.516 6.451 5.075 9.287 7.824-3.436-7.092-6.605-7.58-9.287-7.824zM182.857 808.107c-2.365-5.533-3.74-11.97-3.74-18.729 0-13.436 5.434-25.603 14.225-34.423l80.212-80.212c4.236-3.644 9.788-5.863 15.859-5.863 13.465 0 24.381 10.916 24.381 24.381 0 6.071-2.219 11.623-5.89 15.891l-79.943 80.181h75.825l66.072-66.072c4.236-3.644 9.788-5.863 15.859-5.863 13.465 0 24.381 10.916 24.381 24.381 0 6.071-2.219 11.623-5.89 15.891l-65.802 66.040c-8.834 8.885-21.066 14.385-34.582 14.385-0.014 0-0.027 0-0.041 0h-75.823c-0.030 0-0.066 0-0.102 0-20.155 0-37.454-12.228-44.883-29.67zM794.575 838.095h-75.825c-13.442-0.058-25.59-5.547-34.375-14.382l-66.075-65.831c-3.644-4.236-5.863-9.788-5.863-15.859 0-13.465 10.916-24.381 24.381-24.381 6.071 0 11.623 2.219 15.891 5.89l66.040 65.802h75.825l-80.213-80.213c-5.23-4.498-8.522-11.124-8.522-18.518 0-13.465 10.916-24.381 24.381-24.381 7.395 0 14.020 3.292 18.491 8.49l80.24 80.245c8.763 8.814 14.18 20.963 14.18 34.378 0 26.858-21.715 48.645-48.546 48.761z" />
<glyph unicode="&#xe922;" glyph-name="guap-logo" d="M889.181 548.409c-63.099 16.461-148.38 28.375-242.518 34.175 1.568-25.004 2.587-50.714 3.292-76.816 172.051-11.209 263.055-40.211 291.037-57.847-37.859-24.456-183.966-62.080-428.914-62.080s-391.917 37.702-429.149 62.158c35.664 23.515 169.386 59.023 400.696 61.923 21.025 0.133 38.017 17.208 38.017 38.251 0 21.126-17.126 38.252-38.252 38.252-0.083 0-0.165 0-0.248-0.001h-0.458c-113.342-1.411-482.685-15.677-482.685-138.425 0-131.998 426.484-138.582 512-138.582s512 6.663 512 138.66c0 58.396-76.894 85.203-134.819 100.331zM569.769 310.124c-11.209-172.443-40.211-263.133-57.847-291.116-24.456 37.859-62.080 183.966-62.080 428.914s37.624 391.368 62.158 429.070c23.515-36.605 60.12-176.127 62.080-409.788 0.178-20.99 17.235-37.938 38.25-37.938 0 0 0.001 0 0.001 0v0c0.001 0 0.001 0 0.002 0 21.125 0 38.251 17.126 38.251 38.251 0 0.138-0.001 0.275-0.002 0.413-1.097 124.922-12.306 242.027-31.353 329.659-24.612 110.834-58.631 162.41-107.228 162.41-131.998 0-138.66-426.484-138.66-512s6.663-512 138.66-512c58.474 0 85.281 76.894 100.331 134.741 16.461 63.177 28.375 148.536 34.175 242.988-28.296-1.96-54.476-2.979-76.737-3.606z" />
</font>
</defs>
</svg>
