<?xml version="1.0" standalone="no"?>
<!DOCTYPE svg PUBLIC "-//W3C//DTD SVG 1.1//EN" "http://www.w3.org/Graphics/SVG/1.1/DTD/svg11.dtd" >
<svg xmlns="http://www.w3.org/2000/svg">
<metadata>Generated by IcoMoon</metadata>
<defs>
<font id="guap-icons" horiz-adv-x="1024">
<font-face units-per-em="1024" ascent="960" descent="-64" />
<missing-glyph horiz-adv-x="1024" />
<glyph unicode="&#x20;" horiz-adv-x="512" d="" />
<glyph unicode="&#xe900;" glyph-name="arrow-marker-down" d="M512.757-64c-14.918 0-28.406 6.126-38.085 15.999l-0.385 0.38-436.575 436.576c-20.828 20.828-20.828 54.596 0 75.424 20.828 20.829 54.597 20.829 75.425 0l346.287-346.287v788.575c0 29.455 23.878 53.333 53.333 53.333s53.333-23.878 53.333-53.333v-787.818l345.53 345.53c20.829 20.829 54.597 20.829 75.425 0 20.828-20.828 20.828-54.596 0-75.424l-431.605-431.605c-9.729-12.963-25.227-21.349-42.683-21.349z" />
<glyph unicode="&#xe901;" glyph-name="arrow-marker-down-left" d="M150.073 86.229c-10.548 10.549-15.755 24.418-15.618 38.244l-0.002 0.54v617.411c0 29.455 23.877 53.333 53.333 53.333 29.455 0 53.333-23.878 53.333-53.333v-489.725l557.606 557.607c20.828 20.828 54.597 20.828 75.425 0 20.828-20.829 20.828-54.597 0-75.425l-557.071-557.071h488.653c29.455 0 53.333-23.878 53.333-53.333s-23.878-53.333-53.333-53.333h-610.383c-16.046-2.287-32.933 2.741-45.277 15.085z" />
<glyph unicode="&#xe902;" glyph-name="arrow-marker-down-right" d="M874.15 86.229c-10.549-10.549-24.418-15.755-38.244-15.618l-0.541-0.003h-617.41c-29.455 0-53.333 23.878-53.333 53.333 0 29.456 23.878 53.333 53.333 53.333h489.725l-557.607 557.607c-20.828 20.828-20.828 54.596 0 75.425s54.597 20.828 75.425 0l557.071-557.071v488.652c0 29.456 23.878 53.333 53.333 53.333s53.333-23.877 53.333-53.333v-610.382c2.286-16.046-2.742-32.933-15.085-45.277z" />
<glyph unicode="&#xe903;" glyph-name="arrow-marker-left" d="M0.379 447.621c0 14.918 6.125 28.406 15.999 38.086l0.38 0.384 436.575 436.575c20.828 20.828 54.596 20.828 75.425 0s20.828-54.597 0-75.425l-346.288-346.287h788.575c29.455 0 53.333-23.878 53.333-53.333s-23.878-53.333-53.333-53.333h-787.817l345.53-345.53c20.828-20.829 20.828-54.597 0-75.425-20.829-20.828-54.597-20.828-75.425 0l-431.605 431.605c-12.963 9.729-21.349 25.227-21.349 42.683z" />
<glyph unicode="&#xe904;" glyph-name="arrow-marker-right" d="M1024.38 448.379c0-14.918-6.126-28.406-15.999-38.085l-0.381-0.385-436.575-436.575c-20.828-20.828-54.597-20.828-75.425 0s-20.828 54.597 0 75.425l346.288 346.287h-788.575c-29.455 0-53.333 23.878-53.333 53.333 0 29.456 23.878 53.333 53.333 53.333h787.817l-345.53 345.53c-20.828 20.828-20.828 54.597 0 75.425s54.597 20.828 75.425 0l431.605-431.605c12.963-9.729 21.349-25.227 21.349-42.683z" />
<glyph unicode="&#xe905;" glyph-name="arrow-marker-up" d="M512 960c14.918 0 28.406-6.125 38.086-15.999l0.384-0.38 436.575-436.576c20.829-20.828 20.829-54.596 0-75.424s-54.596-20.829-75.424 0l-346.288 346.287v-788.575c0-29.455-23.878-53.333-53.333-53.333s-53.333 23.878-53.333 53.333v787.818l-345.53-345.53c-20.828-20.829-54.597-20.829-75.425 0s-20.828 54.596 0 75.424l431.605 431.606c9.73 12.963 25.227 21.349 42.683 21.349z" />
<glyph unicode="&#xe906;" glyph-name="arrow-marker-up-left" d="M150.073 810.306c10.549 10.549 24.418 15.756 38.244 15.619l0.541 0.002h617.41c29.455 0 53.333-23.878 53.333-53.333s-23.878-53.333-53.333-53.333h-489.725l557.607-557.606c20.828-20.828 20.828-54.597 0-75.425s-54.597-20.828-75.425 0l-557.071 557.071v-488.653c0-29.455-23.878-53.333-53.333-53.333s-53.333 23.878-53.333 53.333v610.382c-2.286 16.046 2.742 32.934 15.085 45.277z" />
<glyph unicode="&#xe907;" glyph-name="arrow-marker-up-right" d="M874.149 810.307c10.549-10.549 15.756-24.418 15.619-38.244l0.002-0.541v-617.41c0-29.456-23.878-53.333-53.333-53.333s-53.333 23.877-53.333 53.333v489.725l-557.606-557.607c-20.829-20.828-54.597-20.828-75.425 0s-20.828 54.596 0 75.425l557.071 557.071h-488.653c-29.455 0-53.333 23.877-53.333 53.333s23.878 53.333 53.333 53.333h610.382c16.046 2.286 32.934-2.742 45.277-15.085z" />
<glyph unicode="&#xe908;" glyph-name="bars" d="M85.333 821.333c0-29.455 23.878-53.333 53.333-53.333h746.667c29.455 0 53.333 23.878 53.333 53.333s-23.878 53.333-53.333 53.333h-746.667c-29.455 0-53.333-23.878-53.333-53.333zM85.333 448c0-29.455 23.878-53.333 53.333-53.333h746.667c29.455 0 53.333 23.878 53.333 53.333s-23.878 53.333-53.333 53.333h-746.667c-29.455 0-53.333-23.878-53.333-53.333zM85.333 74.667c0-29.455 23.878-53.333 53.333-53.333h746.667c29.455 0 53.333 23.878 53.333 53.333s-23.878 53.333-53.333 53.333h-746.667c-29.455 0-53.333-23.878-53.333-53.333z" />
<glyph unicode="&#xe909;" glyph-name="chevron-down" d="M502.897 242.321c16.498-2.843 34.077 2.105 46.815 14.843l301.699 301.699c20.828 20.828 20.828 54.596 0 75.425s-54.596 20.828-75.425 0l-267.424-267.425-268.183 268.182c-20.828 20.829-54.596 20.829-75.424 0-20.829-20.828-20.829-54.596 0-75.424l301.698-301.699c10.041-10.041 23.088-15.241 36.244-15.601z" />
<glyph unicode="&#xe90a;" glyph-name="chevron-down-left" d="M259.93 198.007c9.657-13.677 25.585-22.609 43.599-22.609h426.667c29.456 0 53.333 23.878 53.333 53.333 0 29.456-23.877 53.333-53.333 53.333h-378.195v379.268c0 29.455-23.878 53.333-53.333 53.333s-53.333-23.878-53.333-53.333v-426.667c0-14.199 5.549-27.103 14.596-36.659z" />
<glyph unicode="&#xe90b;" glyph-name="chevron-down-right" d="M761.993 191.068c13.677 9.655 22.609 25.584 22.609 43.599v426.667c0 29.455-23.878 53.333-53.333 53.333-29.456 0-53.333-23.878-53.333-53.333v-378.195h-379.268c-29.455 0-53.333-23.878-53.333-53.333 0-29.456 23.878-53.333 53.333-53.333h426.667c14.199 0 27.103 5.549 36.659 14.596z" />
<glyph unicode="&#xe90c;" glyph-name="chevron-left" d="M310.112 457.103c-2.844-16.498 2.105-34.077 14.843-46.815l301.698-301.699c20.829-20.828 54.597-20.828 75.425 0s20.828 54.596 0 75.425l-267.425 267.424 268.183 268.183c20.828 20.828 20.828 54.596 0 75.424-20.828 20.829-54.597 20.829-75.425 0l-301.699-301.698c-10.041-10.041-15.241-23.088-15.6-36.244z" />
<glyph unicode="&#xe90d;" glyph-name="chevron-right" d="M711.967 440.819c2.843 16.498-2.105 34.077-14.843 46.815l-301.699 301.699c-20.828 20.828-54.597 20.828-75.425 0s-20.828-54.596 0-75.425l267.425-267.424-268.183-268.183c-20.828-20.828-20.828-54.596 0-75.424 20.829-20.829 54.597-20.829 75.425 0l301.699 301.698c10.041 10.041 15.241 23.088 15.601 36.244z" />
<glyph unicode="&#xe90e;" glyph-name="chevron-up" d="M513.469 649.888c-16.498 2.844-34.077-2.105-46.816-14.843l-301.698-301.698c-20.829-20.829-20.829-54.597 0-75.425 20.828-20.828 54.596-20.828 75.424 0l267.425 267.425 268.182-268.183c20.829-20.828 54.597-20.828 75.425 0s20.828 54.597 0 75.425l-301.699 301.699c-10.039 10.041-23.088 15.241-36.243 15.6z" />
<glyph unicode="&#xe90f;" glyph-name="chevron-up-left" d="M267.941 700.070c-13.677-9.657-22.608-25.585-22.608-43.599v-426.667c0-29.456 23.878-53.333 53.333-53.333s53.333 23.877 53.333 53.333v378.195h379.268c29.455 0 53.333 23.878 53.333 53.333s-23.878 53.333-53.333 53.333h-426.667c-14.199 0-27.103-5.549-36.66-14.596z" />
<glyph unicode="&#xe910;" glyph-name="chevron-up-right" d="M768.932 692.059c-9.655 13.677-25.584 22.608-43.599 22.608h-426.667c-29.455 0-53.333-23.878-53.333-53.333s23.878-53.333 53.333-53.333h378.195v-379.268c0-29.455 23.878-53.333 53.333-53.333 29.456 0 53.333 23.878 53.333 53.333v426.667c0 14.199-5.549 27.103-14.596 36.66z" />
<glyph unicode="&#xe911;" glyph-name="cross" d="M176.379 859.046c-20.828 20.828-54.596 20.828-75.424 0s-20.828-54.597 0-75.424l340.954-340.955-340.196-340.196c-20.828-20.828-20.828-54.596 0-75.425s54.597-20.828 75.425 0l340.196 340.196 337.868-337.868c20.829-20.828 54.597-20.828 75.425 0s20.828 54.596 0 75.425l-337.868 337.868 338.626 338.626c20.828 20.828 20.828 54.597 0 75.425s-54.597 20.828-75.425 0l-338.626-338.626-340.955 340.954z" />
<glyph unicode="&#xe912;" glyph-name="adress" d="M512 838.080c-161.568 0-292.576-130.976-292.576-292.576 0-53.632 29.024-129.696 88.736-232.608 4.384-6.848 11.968-11.296 20.576-11.296 13.472 0 24.384 10.912 24.384 24.384 0 4.128-1.024 8.032-2.848 11.424-67.968 116.896-82.112 177.6-82.112 208.096 0 134.656 109.152 243.808 243.808 243.808s243.808-109.152 243.808-243.808c0-73.152-83.872-231.36-224.32-421.536-4.48-5.952-11.552-9.76-19.52-9.76s-15.008 3.808-19.456 9.696c-23.2 31.264-45.408 62.72-66.368 93.44-4.512 5.632-11.36 9.184-19.072 9.184-13.472 0-24.384-10.912-24.384-24.384 0-4.448 1.184-8.64 3.296-12.224 21.152-31.104 43.808-63.040 67.232-94.976 13.472-18.048 34.752-29.568 58.752-29.568s45.28 11.552 58.624 29.408c87.68 118.432 233.952 334.208 233.952 450.752 0 161.568-130.976 292.576-292.576 292.576zM512 676.448c0 0 0.032 0 0.032 0 14.656 0 28.736-2.592 41.76-7.328 1.6-0.608 4.384-1.12 7.328-1.12 13.696 0 24.8 11.104 24.8 24.8 0 10.752-6.848 19.936-16.448 23.36-17.248 6.368-36.992 9.984-57.568 9.984-94.272 0-170.656-76.416-170.656-170.656s76.416-170.656 170.656-170.656c94.272 0 170.656 76.416 170.656 170.656 0 18.944-3.072 37.152-8.768 54.176-2.656 9.088-12 16.48-23.104 16.48-13.472 0-24.384-10.912-24.384-24.384 0-3.040 0.544-5.92 1.568-8.608 3.968-11.392 6.272-24.736 6.272-38.592 0-67.328-54.592-121.92-121.92-121.92s-121.92 54.592-121.92 121.92c0 67.232 54.432 121.76 121.664 121.92z" />
<glyph unicode="&#xe913;" glyph-name="arrow-left" d="M784.32 776.416c-7.008 4.096-15.392 6.528-24.384 6.528s-17.376-2.432-24.608-6.656l-495.68-286.112c-14.624-8.608-24.288-24.256-24.288-42.176s9.664-33.568 24.064-42.048l496.128-286.368c7.008-4.096 15.392-6.528 24.384-6.528 26.912 0 48.736 21.792 48.768 48.704v188.704c0 13.472-10.912 24.384-24.384 24.384s-24.384-10.912-24.384-24.384v-188.704l-495.904 286.24 495.904 286.24v-188.704c0-13.472 10.912-24.384 24.384-24.384s24.384 10.912 24.384 24.384v188.704c-0.032 17.92-9.728 33.6-24.16 42.048z" />
<glyph unicode="&#xe914;" glyph-name="arrow-right" d="M784.32 490.176l-495.904 286.24c-7.008 4.096-15.392 6.528-24.384 6.528-26.912 0-48.736-21.792-48.768-48.704v-188.704c0-13.472 10.912-24.384 24.384-24.384s24.384 10.912 24.384 24.384v188.704l495.904-286.24-495.904-286.24v188.704c0 13.472-10.912 24.384-24.384 24.384s-24.384-10.912-24.384-24.384v-188.704c0.032-26.912 21.856-48.704 48.768-48.704 8.992 0 17.376 2.432 24.608 6.656l495.68 286.112c14.624 8.608 24.288 24.256 24.288 42.176s-9.664 33.568-24.064 42.048z" />
<glyph unicode="&#xe915;" glyph-name="atom" d="M744.832 444.576c82.176 79.008 129.696 160.416 96.064 213.088-11.456 18.048-36.576 37.792-90.944 36.576-13.056-0.544-23.424-11.232-23.424-24.384 0-13.472 10.912-24.384 24.384-24.384 0.352 0 0.672 0 1.024 0.032 24.32 0 41.888-4.384 48.704-13.888 14.144-22.176-16.832-82.4-89.952-152.864-16.832 15.36-35.104 30.72-54.112 45.6-3.968 69.248-16.256 134.144-35.904 195.744-33.568 96.576-77.696 118.048-108.672 118.048v0c-56.576 0-97.536-67.52-121.92-162.368-91.904 33.408-170.656 37.792-202.112-8.768-11.936-17.792-20.224-48.768 2.432-97.536 4.032-8.256 12.352-13.856 21.984-13.856 4.576 0 8.832 1.248 12.48 3.424l-0.096-0.064c7.168 4.32 11.904 12.096 11.904 20.928 0 3.808-0.864 7.424-2.432 10.656-10.176 22.272-12.384 40.096-6.048 48.608s42.432 20.48 110.208 1.472c13.152-3.648 27.072-8.544 40.96-13.664-5.248-28.096-9.6-62.624-12.032-97.696-132.8-100.512-230.336-222.432-185.696-291.424 17.6-22.592 44.832-36.992 75.392-36.992 3.936 0 7.808 0.224 11.616 0.704 43.776 1.696 85.408 10.496 124.128 25.248 1.216-16.256 5.12-31.136 9.76-45.024 34.368-102.4 78.496-123.84 109.472-123.84v0c21.44 0 51.456 10.496 79.712 57.28 2.080 3.52 3.328 7.776 3.328 12.288 0 9.728-5.696 18.112-13.92 22.016l-0.16 0.064c-3.040 1.472-6.624 2.336-10.4 2.336-8.928 0-16.736-4.8-20.992-11.968-13.216-21.312-26.144-33.28-37.6-33.28v0c-15.104 0-40.704 24.384-63.136 90.464-4.864 14.4-9.024 29.984-12.928 46.336 24.384 9.984 48.768 21.44 73.152 34.368 46.272-27.232 99.744-50.912 155.968-68.288 30.016-9.152 58.368-13.92 87.712-14.592 3.616-0.416 7.392-0.672 11.232-0.672 28.608 0 54.144 13.344 70.656 34.112 17.44 25.792 24.512 73.312-40.832 160.128-15.968 20.576-32.032 38.848-49.088 56.16zM365.728 462.88c0-5.12 0-9.984 0-15.104s0-7.328 0-10.72l-15.104 13.152zM224.32 264.416c-14.144 22.176 16.832 82.4 90.208 153.12q24.384-22.912 53.888-45.344c2.528-36.928 6.688-70.368 12.544-103.232-84.704-24.256-143.712-24.992-156.64-4.512zM603.2 562.816l-9.024 7.072-29.984 19.52c11.2 5.376 22.176 10.496 33.152 15.104q3.424-20.736 5.856-41.696zM512 789.344v0c15.104 0 40.704-24.384 63.136-90.464 4.864-14.4 9.024-29.76 12.928-46.080-24.384-9.984-48.768-21.696-73.152-34.624-25.856 14.4-51.68 27.808-77.28 39.008 20 83.392 49.984 132.16 74.368 132.16zM427.392 608.192c12.192-5.6 24.384-11.712 36.8-18.048-10.24-6.080-20.48-12.192-30.72-18.784l-12.672-8.288c1.696 15.84 3.904 31.2 6.336 45.12zM427.392 291.232q-3.168 20-5.6 41.216l9.024-6.336 29.984-19.744q-18.048-7.328-34.368-14.144zM598.080 287.072c-12.192 5.6-24.384 11.712-36.8 18.048 10.24 6.080 20.736 12.192 30.72 18.528l12.448 8.288c-3.168-14.4-5.12-30.24-7.552-44.128zM609.28 394.368c-13.888-9.76-28.288-19.744-43.648-29.504s-36.576-22.432-54.112-32.192c-17.792 10.496-35.36 21.696-53.152 33.632s-28.032 19.52-41.44 29.76c-2.432 17.792-2.432 34.624-2.432 51.936s0 35.584 1.472 52.672c13.888 9.76 28.288 19.744 43.648 29.504s36.096 21.952 54.112 32.192c17.568-10.496 35.36-21.696 52.896-33.632s28.032-19.744 41.44-29.76c0-16.832 1.472-33.632 1.472-50.944s0-35.36-1.472-52.672zM658.272 458.976l15.36-13.152-15.36-12.672c0 5.12 0 9.984 0 15.104s0 7.072 0 10.72zM794.56 256.352c-8.544-12.672-42.432-20.48-110.208-1.472-13.152 3.648-26.816 8.544-40.704 13.664 5.12 29.984 9.504 68.032 11.936 100.704 18.528 13.888 36.576 28.032 53.408 42.432 16.32-16.16 31.648-33.28 45.92-51.232 42.848-57.024 48.192-91.392 39.68-104.064z" />
<glyph unicode="&#xe916;" glyph-name="award" d="M271.36 741.792c13.472 0 24.384 10.912 24.384 24.384s10.912 24.384 24.384 24.384h386.912c13.472 0 24.384-10.912 24.384-24.384s10.912-24.384 24.384-24.384c13.472 0 24.384 10.912 24.384 24.384 0 40.384-32.736 73.152-73.152 73.152h-386.912c-40.384 0-73.152-32.736-73.152-73.152 0-13.472 10.912-24.384 24.384-24.384zM658.272 106.656h-292.576c-13.472 0-24.384-10.912-24.384-24.384s10.912-24.384 24.384-24.384h292.576c13.472 0 24.384 10.912 24.384 24.384s-10.912 24.384-24.384 24.384zM414.464 155.424c0-13.472 10.912-24.384 24.384-24.384h146.272c13.472 0 24.384 10.912 24.384 24.384s-10.912 24.384-24.384 24.384h-146.272c-13.472 0-24.384-10.912-24.384-24.384zM512 202.24c-13.472 0-24.384 10.912-24.384 24.384v88c0 0.032 0 0.064 0 0.064 0 6.496-4.544 11.936-10.624 13.312-67.392 15.136-238.304 71.2-233.184 266.272v40.704c0.064 0.32 0.064 0.672 0.064 1.024 0 3.584-2.656 6.56-6.144 7.008h-57.568c0 0 0 0 0 0-3.904 0-7.072-3.168-7.072-7.072 0-0.096 0-0.16 0-0.256 1.792-37.952 17.248-71.968 41.504-97.568 3.584-4.16 5.792-9.728 5.792-15.776 0-13.472-10.912-24.384-24.384-24.384-6.080 0-11.616 2.208-15.904 5.888-34.336 36.192-55.584 85.184-55.808 139.136 0 0.288 0 0.544 0 0.832 0 13.152 5.216 25.088 13.664 33.856 8.8 8.736 20.928 14.112 34.336 14.112 0.096 0 0.192 0 0.288 0h73.12c26.944 0 48.768-21.824 48.768-48.768v-48.768c-5.12-162.368 141.152-207.488 204.064-219.424 21.824-5.152 37.792-24.48 37.792-47.52 0-0.448 0-0.864-0.032-1.312v-99.424c0-13.472-10.912-24.384-24.384-24.384zM890.4 675.968c-8.864 9.024-21.184 14.624-34.816 14.624-0.096 0-0.192 0-0.288 0h-73.12c-26.944 0-48.768-21.824-48.768-48.768v-48.768c0.256-3.776 0.416-8.224 0.416-12.672 0-77.376-45.472-144.16-111.136-175.040-8.608-4.768-13.536-12.672-13.536-21.696 0-6.656 2.656-12.672 6.976-17.088v0c4.384-4.32 10.432-7.008 17.088-7.008 4.192 0 8.128 1.056 11.552 2.912 82.56 38.624 138.816 121.152 138.816 216.8 0 5.28-0.16 10.528-0.512 15.712l0.032 40c0 3.904 3.168 7.072 7.072 7.072h57.536c0 0 0 0 0 0 3.904 0 7.072-3.168 7.072-7.072 0-0.096 0-0.16 0-0.256-1.792-37.952-17.248-71.968-41.504-97.568-3.584-4.16-5.792-9.728-5.792-15.776 0-13.472 10.912-24.384 24.384-24.384 6.080 0 11.616 2.208 15.904 5.888 34.336 36.192 55.584 85.184 55.808 139.136 0 0.224 0 0.416 0 0.608 0 12.896-5.024 24.64-13.184 33.344z" />
<glyph unicode="&#xe917;" glyph-name="bachleor" d="M563.328 138.528l-74.080 40.384c-2.336 1.28-5.12 2.048-8.096 2.048-9.44 0-17.056-7.648-17.056-17.056 0-0.128 0-0.224 0-0.352l1.024-135.264-41.632-41.632-79.648 143.712 30.144 30.144c3.072 3.072 4.992 7.36 4.992 12.064s-1.92 8.96-4.992 12.064l-125.152 125.152c-3.136 2.976-7.392 4.8-12.064 4.8s-8.928-1.824-12.064-4.832l-30.144-29.472-143.712 79.648 41.632 41.632 135.040-1.472c0.096 0 0.224 0 0.32 0 9.44 0 17.056 7.648 17.056 17.056 0 2.976-0.768 5.76-2.080 8.16l-126.24 231.104 36.992 36.992 246.112-1.92c9.44 0 17.056 7.648 17.056 17.056s-7.648 17.056-17.056 17.056l-253.152 2.048c-0.096 0-0.224 0-0.32 0-4.64 0-8.832-1.92-11.84-4.992l-50.976-51.104c-3.104-3.104-5.024-7.36-5.024-12.096 0-2.976 0.768-5.792 2.112-8.256l118.624-216.768-113.792 0.896c-4.736 0-9.056-1.92-12.192-5.024l-62.464-62.816c-3.072-3.072-4.96-7.328-4.96-12.032 0-6.4 3.52-11.968 8.736-14.912l174.848-96.416c2.368-1.344 5.216-2.112 8.224-2.112 4.704 0 8.928 1.888 12.032 4.96l27.2 27.2 101.504-101.504-27.2-27.2c-3.072-3.072-4.96-7.328-4.96-12.032 0-3.008 0.768-5.856 2.144-8.32l96.224-174.688c2.56-4.608 7.104-7.84 12.416-8.64h2.496c4.704 0 8.96 1.92 12.064 4.992l62.816 62.816c3.104 3.104 4.992 7.36 4.992 12.064 0 0.032 0 0.064 0 0.096l-0.896 113.76 48.576-26.496c2.24-1.152 4.896-1.824 7.712-1.824 9.44 0 17.056 7.648 17.056 17.056 0 6.24-3.328 11.68-8.32 14.656zM905.664 692.608c84.192 90.24 142.56 200.032 96.704 245.76-48 48-166.24-18.304-258.624-108.896l-1.024-0.896-3.296-3.296-112.192-6.592c-4.448-0.192-8.448-2.080-11.392-4.992l-94.208-94.208c-3.072-3.104-4.96-7.36-4.96-12.064 0-9.472 7.68-17.184 17.184-17.184 4.8 0 9.12 1.952 12.224 5.12l89.664 89.664 67.456 4.32-403.904-403.904c-3.36-3.136-5.44-7.552-5.44-12.48 0-9.44 7.648-17.056 17.056-17.056 4.928 0 9.376 2.080 12.48 5.408l442.944 442.496c100.8 99.328 191.264 131.2 212.096 110.72s-11.392-111.040-110.016-211.392l-430.208-430.208c-3.36-3.136-5.44-7.552-5.44-12.48 0-9.44 7.648-17.056 17.056-17.056 4.928 0 9.376 2.080 12.48 5.408l390.944 390.496-3.968-67.36-89.984-89.76c-3.104-3.104-4.992-7.36-4.992-12.064 0-0.032 0-0.064 0-0.096l2.944-380.576-36.992-36.992-56.896 31.296c-2.24 1.152-4.896 1.824-7.712 1.824-9.44 0-17.056-7.648-17.056-17.056 0-6.24 3.328-11.68 8.32-14.656l68.352-37.472c2.368-1.312 5.152-2.080 8.16-2.080 4.736 0 9.024 1.92 12.096 5.024l50.976 50.976c3.104 3.104 4.992 7.36 4.992 12.064 0 0.032 0 0.064 0 0.096l-2.944 380.576 89.088 89.088c2.944 2.912 4.8 6.912 4.992 11.328l6.592 112.096 14.688 14.688c0.608 0.704 1.184 1.472 1.664 2.304z" />
<glyph unicode="&#xe918;" glyph-name="base-cathedra" d="M566.272 585.44c36.352-18.24 63.872-49.536 76.832-87.552 2.752-7.84 9.088-12.576 16.544-12.576 9.504 0 17.184 7.68 17.184 17.184 0 2.048-0.352 4-0.992 5.824-16.16 47.712-49.856 85.984-93.216 107.808-3.296 1.632-5.92 2.272-8.704 2.272-9.44 0-17.088-7.648-17.088-17.088 0-6.656 3.808-12.448 9.376-15.264zM375.456 203.616c30.592-15.808 66.464-26.144 104.448-28.64q9.344-0.032 17.888-0.032c151.040 0.192 273.408 122.688 273.408 273.76 0 151.2-122.56 273.76-273.76 273.76s-273.76-122.56-273.76-273.76c0-106.752 61.088-199.2 150.208-244.352zM271.232 372.096c-7.84 22.656-12.384 48.736-12.384 75.904 0 131.936 106.944 238.912 238.912 238.944q7.392 0 14.912 0c125.504-7.968 224.256-111.68 224.256-238.496 0-38.976-9.344-75.776-25.888-108.288l0.64 1.344c-40.032-79.136-120.736-132.416-213.888-132.416-104.8 0-193.856 67.456-226.048 161.344zM122.656 244.672c-6.592 12.064-12.64 24.576-17.984 37.312s-10.24 25.952-14.336 39.136-7.744 27.072-10.688 40.832-4.992 28.096-6.496 42.336c-1.408 13.088-2.208 28.256-2.208 43.648s0.8 30.56 2.368 45.504c1.312 12.352 3.488 26.688 6.336 40.448s6.368 27.52 10.464 40.832c0.16 0.864 0.256 1.856 0.256 2.88 0 9.44-7.648 17.056-17.056 17.056-6.912 0-12.896-4.128-15.552-10.048-4.48-14.56-8.352-29.472-11.424-44.256s-5.472-30.368-6.944-45.504c-1.504-14.112-2.368-30.528-2.368-47.104s0.864-32.992 2.56-49.12c1.408-13.344 3.712-28.832 6.784-43.488s6.816-29.696 11.392-44.16 9.664-28.544 15.488-42.336 12.288-27.296 19.456-40.288 14.784-25.728 22.752-38.016c3.136-4.416 8.224-7.264 13.952-7.264 9.44 0 17.056 7.648 17.056 17.056 0 3.264-0.928 6.336-2.528 8.928-7.36 11.296-14.752 23.488-21.248 35.552zM941.504 465.056c-9.44 0-17.056-7.648-17.056-17.056 0-0.064 0-0.128 0-0.224 0-15.264-0.8-30.368-2.304-45.216-1.312-12.352-3.488-26.688-6.336-40.448s-6.368-27.52-10.464-40.832-8.992-26.4-14.336-39.136-11.392-25.248-17.984-37.312-13.76-24.352-21.376-35.712-15.808-22.752-24.576-32.896-17.856-20.704-27.52-30.272-19.808-18.88-30.272-27.52-21.504-16.96-32.896-24.576-22.752-14.912-35.168-21.376-24.704-12.64-37.312-17.984-25.952-10.24-39.136-14.336-27.072-7.744-40.832-10.464c-11.392-2.496-25.824-4.768-40.448-6.336-14.848-1.536-29.92-2.336-45.152-2.336-0.128 0-0.288 0-0.416 0-9.408 0-17.056-7.648-17.056-17.056s7.648-17.056 17.056-17.056c16.608 0 32.992 0.864 49.12 2.56 15.712 1.664 31.264 4.096 46.496 7.296 11.904 2.56 26.688 6.304 41.152 10.848s28.544 9.664 42.336 15.488 27.2 12.288 40.288 19.456 25.728 14.784 38.016 22.752 24.128 17.184 35.488 26.496 22.752 19.328 32.768 29.696 20.352 21.376 29.696 32.768 18.304 22.752 26.496 35.488 16.032 25.024 22.752 38.016 13.536 26.496 19.456 40.288 11.040 28.672 15.936 43.456 8.32 29.344 11.392 44.16 5.472 30.368 6.944 45.504c1.504 14.048 2.368 30.336 2.4 46.848 0 9.44-7.648 17.088-17.056 17.088zM411.776 866.016c11.392 2.496 25.824 4.768 40.448 6.336 14.944 1.568 30.144 2.336 45.504 2.336s30.56-0.8 45.504-2.336c14.656-1.536 29.088-3.84 43.232-6.816 10.976-2.368 24.736-5.888 38.048-9.984s26.4-8.992 39.136-14.336 25.152-11.392 37.312-17.984 23.776-13.664 35.168-21.376c2.688-1.824 5.984-2.912 9.568-2.912 9.44 0 17.088 7.648 17.088 17.088 0 5.856-2.976 11.040-7.456 14.112-12.352 8.352-25.088 16.096-38.048 22.784s-26.624 13.664-40.288 19.456-28 11.392-42.336 15.488-29.344 8.32-44.16 11.392c-12.256 2.656-27.744 5.12-43.52 6.784-16.128 1.664-32.512 2.528-49.088 2.528s-32.992-0.864-49.12-2.528c-15.744-1.664-31.264-4.096-46.496-7.296-4.832-1.12-10.656-7.968-10.656-16.192 0-9.44 7.648-17.056 17.056-17.056 1.216 0 2.4 0.128 3.52 0.352zM156.448 766.56h28.448v-28.448c0-9.44 7.648-17.056 17.056-17.056s17.056 7.648 17.056 17.056v28.448h28.448c9.44 0 17.056 7.648 17.056 17.056s-7.648 17.056-17.056 17.056h-28.448v28.448c0 9.44-7.648 17.056-17.056 17.056s-17.056-7.648-17.056-17.056v-28.448h-28.448c-9.44 0-17.056-7.648-17.056-17.056s7.648-17.056 17.056-17.056zM1009.664 653.824c-3.712 62.976-55.68 112.672-119.264 112.672-65.984 0-119.456-53.472-119.456-119.456 0-52.096 33.344-96.416 79.872-112.736 2.528-0.864 4.48-1.216 6.528-1.216 9.472 0 17.12 7.68 17.12 17.12 0 7.424-4.704 13.728-11.328 16.128-34.144 11.808-58.176 43.584-58.176 80.96 0 47.2 38.24 85.44 85.44 85.44s85.44-38.24 85.44-85.44c0-21.952-8.288-41.984-21.888-57.12-2.624-2.944-4.256-6.912-4.256-11.296 0-9.44 7.648-17.088 17.088-17.088 5.056 0 9.6 2.208 12.736 5.696 18.912 21.024 30.464 48.96 30.464 79.616 0 2.336-0.064 4.672-0.192 6.976zM890.304 584.544c9.44 0 17.056 7.648 17.056 17.056v28.448h28.448c9.44 0 17.056 7.648 17.056 17.056s-7.648 17.056-17.056 17.056h-28.448v28.448c0 9.44-7.648 17.056-17.056 17.056s-17.056-7.648-17.056-17.056v-28.448h-28.448c-9.44 0-17.056-7.648-17.056-17.056s7.648-17.056 17.056-17.056h28.448v-28.448c0-9.44 7.648-17.056 17.056-17.056zM388.768 114.176c-14.432 28.704-39.232 50.432-69.344 60.512-2.4 0.768-4.224 1.056-6.080 1.056-9.44 0-17.088-7.648-17.088-17.088 0-7.584 4.928-13.984 11.744-16.224 34.72-11.488 59.264-43.552 59.264-81.312 0-47.2-38.24-85.44-85.44-85.44s-85.44 38.24-85.44 85.44c0 21.376 7.84 40.928 20.832 55.904 2.592 2.912 4.192 6.912 4.192 11.264 0 9.504-7.712 17.216-17.216 17.216-5.12 0-9.728-2.24-12.896-5.824-18.304-20.896-29.44-48.416-29.44-78.528 0-65.984 53.472-119.456 119.456-119.456 0.064 0 0.128 0 0.192 0h8.992c62.112 4.704 110.72 56.256 110.72 119.136 0 19.296-4.576 37.536-12.704 53.696zM94.88 724.928c19.936-39.68 60.32-66.432 106.944-66.432h8.992c62.656 4.096 111.904 55.904 111.904 119.232 0 53.248-34.816 98.368-82.944 113.792-2.4 0.768-4.224 1.056-6.080 1.056-9.44 0-17.088-7.648-17.088-17.088 0-7.584 4.928-13.984 11.744-16.224 34.72-11.488 59.264-43.552 59.264-81.312 0-47.2-38.272-85.44-85.44-85.44s-85.44 38.272-85.44 85.44c0 21.376 7.84 40.928 20.832 55.904 2.592 2.912 4.192 6.912 4.192 11.264 0 9.504-7.712 17.216-17.216 17.216-5.12 0-9.728-2.24-12.896-5.824-18.176-20.864-29.216-48.32-29.216-78.336 0-19.392 4.608-37.696 12.8-53.888zM281.6 123.744c-9.44 0-17.056-7.648-17.056-17.056v-28.448h-28.448c-9.44 0-17.056-7.648-17.056-17.056s7.648-17.056 17.056-17.056h28.448v-28.448c0-9.44 7.648-17.056 17.056-17.056s17.056 7.648 17.056 17.056v28.448h28.448c9.44 0 17.056 7.648 17.056 17.056s-7.648 17.056-17.056 17.056h-28.448v28.448c0 9.44-7.648 17.056-17.056 17.056z" />
<glyph unicode="&#xe919;" glyph-name="big-atom" d="M996.928 488.16c-8.832 13.056-19.456 24.096-31.712 33.088-14.048 10.496-29.536 19.808-45.952 27.552-18.080 8.672-38.208 16.704-58.912 23.392-24.64 7.808-47.968 13.952-72.672 19.424 9.664 22.752 17.984 45.504 24.576 67.232 5.696 17.184 11.072 38.464 15.008 60.224 3.2 17.472 4.736 34.112 4.736 51.104 0 2.336-0.032 4.672-0.096 7.008-0.288 16.096-3.52 31.68-9.184 46.048-10.048 26.016-35.584 44.864-65.536 45.184-0.864 0.032-1.792 0.032-2.752 0.032-15.328 0-30.048-2.624-43.712-7.488-18.336-6.272-34.848-13.952-50.4-23.168-19.52-11.36-37.216-23.328-54.048-36.352-17.536-13.248-36.736-29.632-55.744-47.616-12.512-11.392-25.152-24-37.888-37.088-12.736 12.96-25.376 25.472-37.888 37.088-19.456 18.080-38.784 34.144-56.896 48.48-15.68 12.16-33.376 24.128-51.808 34.912-4.768 2.656-7.68 3.488-10.752 3.488-9.44 0-17.056-7.648-17.056-17.056 0-6.336 3.456-11.872 8.576-14.816 19.392-11.392 35.84-22.688 51.488-34.944 16.736-12.672 35.168-28.352 53.952-45.664 12.416-11.392 25.024-23.904 37.536-36.736-19.456-21.152-38.912-43.808-57.792-67.36l-6.272-8.064h-10.24c-31.168-2.048-61.888-5.12-91.008-9.088-17.856-2.4-35.392-5.248-52.352-8.416l-1.376 2.944c-9.888 23.552-18.208 46.208-24.8 67.456-5.344 16-10.336 35.84-14.016 56.128-2.848 15.552-4.224 30.208-4.224 45.184 0 1.92 0.032 3.808 0.064 5.696 0.096 12 2.432 23.712 6.592 34.528 4.992 14.016 18.816 24.352 35.008 24.352 0.224 0 0.416 0 0.64 0 9.088 0.416 16.32 7.904 16.32 17.056 0 9.44-7.648 17.088-17.088 17.088-0.256 0-0.512 0-0.768-0.032-29.952-0.32-55.488-19.168-65.664-45.6-5.536-13.952-8.768-29.568-9.024-45.888-0.064-2.112-0.096-4.448-0.096-6.816 0-16.96 1.568-33.6 4.544-49.696 4.128-23.136 9.504-44.416 16.192-65.088 5.632-17.76 13.92-40.416 23.584-63.744-24.704-5.472-47.904-11.392-69.184-18.432-24.224-7.68-44.32-15.712-63.744-24.96-15.712-7.232-31.776-16.768-46.656-27.808-11.872-8.704-22.528-19.744-31.040-32.352-8.096-11.712-12.736-25.664-12.736-40.672s4.64-28.96 12.608-40.448c8.672-12.768 19.328-23.776 31.552-32.736 14.080-10.496 29.6-19.808 46.048-27.552 18.048-8.672 38.112-16.672 58.784-23.392 24.768-7.808 48-13.952 72.672-19.424-9.664-22.752-17.984-45.504-24.576-67.232-5.696-17.184-11.072-38.464-15.008-60.224-3.2-17.472-4.736-34.080-4.736-51.040 0-2.368 0.032-4.704 0.096-7.040 0.256-16.096 3.488-31.68 9.184-46.048 10.048-26.016 35.584-44.864 65.536-45.184h4.128c14.976 0.288 29.28 2.912 42.592 7.584 18.272 6.272 34.816 13.952 50.368 23.168 19.52 11.36 37.216 23.328 54.048 36.352 17.504 13.248 36.736 29.632 55.744 47.616 12.512 11.392 25.152 24 37.888 37.088 12.64-12.96 25.376-25.472 37.888-37.088 19.456-18.080 38.784-34.144 56.896-48.48 15.68-12.16 33.376-24.128 51.808-34.912 16.64-9.792 33.152-17.472 50.496-23.456 14.272-4.928 28.576-7.584 43.424-7.84h4.224c29.984 0.32 55.52 19.168 65.696 45.6 5.536 13.952 8.768 29.568 9.024 45.888 0.064 2.112 0.096 4.448 0.096 6.784 0 16.992-1.568 33.6-4.544 49.728-4.16 23.136-9.504 44.416-16.192 65.12-5.6 17.76-13.92 40.384-23.584 63.712 24.704 5.472 47.904 11.392 69.184 18.432 6.944 2.272 11.872 8.704 11.872 16.256 0 9.44-7.648 17.088-17.088 17.088-1.856 0-3.68-0.288-5.344-0.864-21.056-6.784-44.48-12.928-69.408-18.272l-3.296-0.672c-7.168 15.712-14.784 31.616-22.752 47.68-11.392 21.056-22.752 42.56-35.616 63.936 13.888 21.376 25.248 42.88 36.64 63.936 8.32 16.16 15.936 31.968 22.752 47.68l3.296-0.672c24.928-5.344 48.256-11.392 69.504-18.432 22.656-7.104 41.504-14.528 59.68-23.136 12.864-6.144 26.304-14.208 38.816-23.488 8.736-6.336 16.672-14.432 23.040-23.68 4.64-6.4 7.264-13.984 7.264-22.176s-2.656-15.808-7.136-21.952c-6.528-9.472-14.432-17.568-23.52-24.16-4.128-3.36-6.56-8.096-6.56-13.408 0-9.44 7.648-17.056 17.056-17.056 3.68 0 7.072 1.152 9.856 3.136 12.576 9.216 23.2 20.256 31.744 32.832 8.096 11.712 12.736 25.664 12.736 40.672s-4.64 28.96-12.608 40.448zM573.088 728.672c18.656 17.28 37.216 32.896 54.944 46.432 14.624 11.52 31.104 22.784 48.288 32.96 14.56 8.608 28.96 15.328 44.032 20.576 10.88 3.776 21.536 5.792 32.608 6.080h2.752c0.192 0 0.384 0 0.608 0 16.224 0 30.016-10.336 35.168-24.768 4.032-10.4 6.368-22.112 6.464-34.368 0.032-1.632 0.064-3.52 0.064-5.44 0-14.976-1.376-29.664-4.032-43.872-3.872-21.632-8.896-41.472-15.136-60.736-5.696-18.016-13.984-40.768-23.904-64.192l-1.376-2.944c-16.96 3.072-34.144 5.92-52.352 8.416-29.472 3.968-60.192 7.040-91.008 9.088h-10.24l-6.272 8.064c-18.88 23.552-38.464 46.208-57.92 67.36 12.288 13.44 24.928 25.824 37.312 37.312zM582.304 312.928c-46.432-2.176-94.080-2.176-140.64 0-14.208 18.432-28.32 37.216-41.856 56.896-18.080 25.472-35.712 51.872-51.2 78.176 15.936 26.272 33.216 52.672 51.328 78.496v0c13.536 19.328 27.648 38.112 41.856 56.896 46.432 2.176 94.080 2.176 140.64 0 14.208-18.304 28.224-37.216 41.856-56.896 18.080-25.824 35.392-52.224 51.328-78.496-15.936-26.272-33.216-52.672-51.328-78.496-13.664-19.328-27.776-38.112-41.984-56.544zM512 229.088c-14.112 15.36-28.096 31.744-42.112 48.576 13.984 0 28-0.672 42.112-0.672s28.096 0 42.112 0.672c-13.888-16.832-28-33.216-42.112-48.576zM329.152 414.88c13.664-21.728 27.776-43.584 42.784-64.96 8.064-11.392 16.384-22.752 24.704-34.144-23.552 1.92-46.88 4.224-69.28 7.296q-21.728 2.944-42.56 6.592 8.992 19.104 19.008 38.688c7.84 15.36 16.384 30.944 25.376 46.528zM512 666.912c14.112-15.488 28.224-31.744 42.112-48.576-28 0.8-56.192 0.8-84.192 0 13.888 16.832 28 33.12 42.112 48.576zM327.328 573.152c22.752 3.072 45.504 5.344 69.28 7.296-8.32-11.392-16.608-22.752-24.704-34.144-15.008-21.376-29.12-43.136-42.784-64.96-8.864 15.584-17.536 31.168-25.376 46.432q-10.112 19.584-19.008 38.688 20.704 3.52 42.56 6.72zM121.056 377.344c-15.84 7.328-29.44 15.456-42.048 24.8-8.736 6.336-16.64 14.432-23.040 23.68-4.64 6.368-7.296 13.952-7.296 22.176s2.656 15.808 7.168 21.952c6.528 9.472 14.432 17.568 23.52 24.16 12.256 9.088 25.792 17.216 40.128 23.936 16.832 8.032 35.68 15.456 55.072 21.664 24.448 7.744 47.872 13.888 72.8 19.232l3.296 0.672c7.168-15.712 14.784-31.52 22.752-47.68 11.392-21.056 22.752-42.56 35.616-63.936-13.184-21.376-24.576-42.88-35.968-63.936-8.32-16.16-15.936-31.968-22.752-47.68l-3.296 0.672c-24.928 5.344-48.256 11.392-69.504 18.304-22.496 7.136-41.184 14.592-59.232 23.168zM451.008 167.296c-18.656-17.28-37.216-32.896-54.944-46.432-14.624-11.488-31.104-22.784-48.288-32.96-14.56-8.608-28.96-15.328-44.032-20.576-11.424-4.032-22.688-6.080-34.432-6.080-0.48 0-0.96 0-1.44 0-0.096 0-0.32 0-0.544 0-16.224 0-30.016 10.336-35.168 24.768-4.032 10.4-6.368 22.112-6.464 34.368-0.032 1.664-0.064 3.552-0.064 5.44 0 14.976 1.376 29.632 4.032 43.84 3.872 21.632 8.896 41.472 15.136 60.736 5.696 18.016 13.984 40.64 23.904 64.192l1.376 2.944c16.96-3.072 34.144-5.92 52.352-8.416 29.472-3.968 60.192-7.040 91.008-9.088h10.24l6.272-8.192c19.008-23.68 38.464-46.304 57.792-67.36-11.84-13.312-24.448-25.728-36.864-37.216zM797.92 120.448c-0.096-12.288-2.432-24-6.592-34.816-4.992-14.016-18.784-24.352-35.008-24.352-0.224 0-0.416 0-0.64 0-0.416 0-0.928 0-1.472 0-11.68 0-22.912 2.048-33.312 5.792-16.064 5.536-30.464 12.256-44 20.288-18.208 10.752-34.656 22.016-50.304 34.304-16.736 12.672-35.168 28.352-53.952 45.664-12.416 11.392-25.024 23.904-37.536 36.736 19.456 21.152 38.912 43.808 57.92 67.36l6.272 8.192h10.24c31.168 2.048 61.888 5.12 91.008 9.088 17.856 2.4 35.392 5.248 52.352 8.416l1.376-2.944c9.888-23.424 18.208-46.208 24.8-67.456 5.312-16 10.336-35.84 14.016-56.128 3.264-16.576 4.864-32.352 4.864-48.544 0-0.576 0-1.12 0-1.696zM739.552 329.664q-20.832-3.648-42.56-6.592c-22.752-3.072-45.504-5.344-69.28-7.296 8.32 11.392 16.608 22.752 24.704 34.144 15.008 21.376 29.12 43.136 42.784 64.96 8.864-15.584 17.536-31.168 25.376-46.432q9.792-19.584 19.008-38.784zM720.32 527.648c-7.84-15.36-16.512-30.848-25.376-46.432-13.664 21.728-27.776 43.584-42.784 64.96-8.064 11.392-16.384 22.752-24.704 34.144 23.552-1.92 46.88-4.224 69.28-7.296q21.728-2.944 42.56-6.592-8.992-19.232-19.008-38.784zM512 535.84c-48.512 0-87.84-39.328-87.84-87.84s39.328-87.84 87.84-87.84c48.512 0 87.84 39.328 87.84 87.84-0.064 48.48-39.36 87.776-87.84 87.84zM512 394.176c-29.664 0-53.696 24.032-53.696 53.696s24.032 53.696 53.696 53.696c29.632 0 53.632-23.968 53.696-53.568-0.064-29.632-24.064-53.632-53.696-53.696z" />
<glyph unicode="&#xe91a;" glyph-name="logo-vk" d="M979.481 278.423c-22.294 26.526-47.631 50.3-72.133 73.291-8.713 8.177-17.721 16.631-26.404 25.037-24.931 24.16-25.839 33.236-6.1 60.677 13.657 18.916 28.135 37.857 42.139 56.175 12.701 16.619 25.835 33.805 38.423 51.047l2.585 3.546c24.060 32.995 48.942 67.114 62.183 108.272 3.439 10.859 7.050 26.838-1.206 40.201-8.25 13.35-24.254 17.424-35.577 19.326-5.6 0.942-11.162 1.070-16.322 1.070l-158.865 0.123c-23.823 0-39.877-11.126-49.077-34.020-8.783-21.874-18.431-45.167-29.44-67.315-21.909-44.102-49.734-94.899-89.998-137.265l-1.702-1.802c-4.755-5.065-10.142-10.8-14.079-10.8-0.604 0-1.26 0.114-2.004 0.347-8.34 3.22-13.938 23.232-13.684 32.54 0.003 0.129 0.005 0.257 0.005 0.386l-0.11 180.496c0 0.625-0.045 1.246-0.127 1.866-4.007 29.342-12.886 47.606-46.433 54.118-0.891 0.176-1.802 0.262-2.709 0.262h-163.834c-26.692 0-41.399-10.753-55.225-26.847-3.732-4.302-11.5-13.259-7.65-24.123 3.907-11.026 16.588-13.385 20.717-14.149 20.497-3.867 32.050-16.293 35.323-38.005 5.713-37.702 6.415-77.945 2.21-126.645-1.173-13.536-3.492-23.989-7.314-32.921-0.889-2.084-4.036-8.886-7.247-8.89-1.021 0-3.971 0.397-9.346 4.068-12.709 8.629-22.009 20.943-32.848 36.155-36.879 51.657-67.83 108.563-94.635 174.010-9.941 24.092-28.508 37.58-52.302 37.977-26.146 0.394-49.851 0.583-72.459 0.583-24.702 0-47.603-0.226-69.966-0.687-19.144-0.335-32.386-6.023-39.353-16.918-6.979-10.903-6.525-25.227 1.35-42.563 63.041-138.908 120.199-239.906 185.337-327.491 45.642-61.286 91.421-103.708 144.055-133.491 55.453-31.442 117.598-46.729 189.98-46.729 8.205 0 16.689 0.198 25.243 0.595 42.060 2.031 57.663 17.119 59.636 57.708 0.939 20.742 3.228 42.497 13.516 61.050 6.494 11.687 12.548 11.687 14.538 11.687 3.834 0 8.586-1.748 13.691-5.025 9.154-5.922 17.004-13.856 23.439-20.787 6.058-6.585 12.047-13.236 18.042-19.891 12.938-14.362 26.315-29.21 40.29-43.293 30.587-30.844 64.284-44.41 102.986-41.466h144.459c0.307 0 0.618 0.012 0.925 0.031 14.395 0.942 26.861 8.855 34.204 21.712 9.095 15.926 8.912 36.244-0.491 54.364-10.669 20.489-24.508 37.994-36.634 52.405z" />
<glyph unicode="&#xe91b;" glyph-name="conferense" d="M291.264 104.384l-61.44 43.232v22.752c0 6.816 1.152 12.512 4.544 18.208 6.816 10.24 10.24 22.752 10.24 35.264v43.232c0 29.568-19.328 55.744-46.656 64.864-15.936 5.696-34.144 5.696-50.048 0-28.448-9.088-46.656-35.264-46.656-64.864v-43.232c0-12.512 3.424-25.024 10.24-35.264 3.424-5.696 4.544-11.392 4.544-18.208v-22.752l-61.44-43.232c-18.208-12.512-29.568-34.144-29.568-55.744v-20.48c0-9.088 7.968-17.056 17.056-17.056s17.056 7.968 17.056 17.056v20.48c0 11.392 5.696 21.632 14.784 28.448l68.256 48.928c4.544 3.424 6.816 7.968 6.816 13.664v31.872c0 12.512-3.424 25.024-10.24 35.264-3.424 5.696-4.544 11.392-4.544 18.208v43.232c0 14.784 9.088 28.448 23.904 32.992 9.088 3.424 19.328 3.424 28.448 0 13.664-4.544 23.904-18.208 23.904-32.992v-43.232c0-6.816-1.152-12.512-4.544-18.208-6.816-10.24-10.24-22.752-10.24-35.264v-31.872c0-5.696 2.272-10.24 6.816-13.664l68.256-48.928c9.088-6.816 14.784-17.056 14.784-28.448v-20.48c0-9.088 7.968-17.056 17.056-17.056s17.056 7.968 17.056 17.056v20.48c1.152 21.632-10.24 43.232-28.448 55.744zM630.336 104.384l-61.44 43.232v22.752c0 6.816 2.272 12.512 4.544 18.208 6.816 10.24 10.24 22.752 10.24 35.264v43.232c0 29.568-19.328 55.744-46.656 64.864-15.936 5.696-34.144 5.696-50.048 0-28.448-9.088-46.656-35.264-46.656-64.864v-43.232c0-12.512 3.424-25.024 10.24-35.264 3.424-5.696 4.544-11.392 4.544-18.208v-22.752l-61.44-43.232c-18.208-12.512-29.568-34.144-29.568-55.744v-20.48c0-9.088 7.968-17.056 17.056-17.056s17.056 7.968 17.056 17.056v20.48c0 11.392 5.696 21.632 14.784 28.448l68.256 48.928c4.544 3.424 6.816 7.968 6.816 13.664v31.872c0 12.512-3.424 25.024-10.24 35.264-3.424 5.696-4.544 11.392-4.544 18.208v43.232c0 14.784 9.088 28.448 23.904 32.992 9.088 3.424 19.328 3.424 28.448 0 13.664-4.544 23.904-18.208 23.904-32.992v-43.232c0-6.816-2.272-12.512-4.544-18.208-6.816-10.24-10.24-22.752-10.24-35.264v-31.872c0-5.696 2.272-10.24 6.816-13.664l68.256-48.928c9.088-6.816 14.784-17.056 14.784-28.448v-20.48c0-9.088 7.968-17.056 17.056-17.056s17.056 7.968 17.056 17.056v20.48c1.152 21.632-10.24 43.232-28.448 55.744zM969.376 104.384l-61.44 43.232v22.752c0 6.816 2.272 12.512 4.544 18.208 6.816 10.24 10.24 22.752 10.24 35.264v43.232c0 29.568-19.328 55.744-46.656 64.864-15.936 5.696-34.144 5.696-50.048 0-28.448-9.088-46.656-35.264-46.656-64.864v-43.232c0-12.512 3.424-25.024 10.24-35.264 3.424-5.696 4.544-11.392 4.544-18.208v-22.752l-61.44-43.232c-18.208-12.512-29.568-34.144-29.568-55.744v-20.48c0-9.088 7.968-17.056 17.056-17.056s17.056 7.968 17.056 17.056v20.48c0 11.392 5.696 21.632 14.784 28.448l68.256 48.928c4.544 3.424 6.816 7.968 6.816 13.664v31.872c0 12.512-3.424 25.024-10.24 35.264-3.424 5.696-4.544 11.392-4.544 18.208v43.232c0 14.784 9.088 28.448 23.904 32.992 9.088 3.424 19.328 3.424 28.448 0 13.664-4.544 23.904-18.208 23.904-32.992v-43.232c0-6.816-1.152-12.512-4.544-18.208-6.816-10.24-10.24-22.752-10.24-35.264v-31.872c0-5.696 2.272-10.24 6.816-13.664l68.256-48.928c9.088-6.816 14.784-17.056 14.784-28.448v-20.48c0-9.088 7.968-17.056 17.056-17.056s17.056 7.968 17.056 17.056v20.48c1.152 21.632-10.24 43.232-28.448 55.744zM762.304 528.768c9.088 0 17.056 7.968 17.056 17.056s-7.968 17.056-17.056 17.056h-233.248v61.44c0 9.088-7.968 17.056-17.056 17.056s-17.056-7.968-17.056-17.056v-61.44h-233.248c-9.088 0-17.056-7.968-17.056-17.056s7.968-17.056 17.056-17.056h80.768l18.208-349.312c0-9.088 9.088-17.056 18.208-15.936 9.088 0 17.056 7.968 15.936 18.208l-18.208 345.888h270.784l-17.056-345.888c0-9.088 6.816-17.056 15.936-18.208 0 0 1.152 0 1.152 0 9.088 0 17.056 6.816 17.056 15.936l18.208 349.312h79.648zM381.152 586.816c9.088 0 17.056 7.968 17.056 17.056v20.48c0 11.392 5.696 21.632 14.784 28.448l68.256 48.928c4.544 3.424 6.816 7.968 6.816 13.664v31.872c0 12.512-3.424 25.024-10.24 35.264-3.424 5.696-4.544 11.392-4.544 18.208v43.232c0 14.784 9.088 28.448 23.904 32.992 9.088 3.424 19.328 3.424 28.448 0 13.664-4.544 23.904-18.208 23.904-32.992v-43.232c0-6.816-2.272-12.512-4.544-18.208-6.816-10.24-10.24-22.752-10.24-35.264v-31.872c0-5.696 2.272-10.24 6.816-13.664l68.256-48.928c9.088-6.816 14.784-17.056 14.784-28.448v-20.48c0-9.088 7.968-17.056 17.056-17.056s17.056 7.968 17.056 17.056v20.48c0 22.752-11.392 43.232-29.568 55.744l-60.288 44.384v22.752c0 6.816 2.272 12.512 4.544 18.208 6.816 10.24 10.24 22.752 10.24 35.264v43.232c0 29.568-19.328 55.744-46.656 64.864-15.936 5.696-34.144 5.696-50.048 0-28.448-9.088-46.656-35.264-46.656-64.864v-43.232c0-12.512 3.424-25.024 10.24-35.264 3.424-5.696 4.544-11.392 4.544-18.208v-22.752l-61.44-43.232c-18.208-12.512-29.568-34.144-29.568-55.744v-20.48c0-10.24 7.968-18.208 17.056-18.208z" />
<glyph unicode="&#xe91c;" glyph-name="congratulation" d="M663.168 207.104c-10.24-1.728-17.952-10.56-17.952-21.184 0-2.176 0.32-4.288 0.928-6.304l9.472-36.416c0.256-0.96 0.416-2.048 0.416-3.168 0-6.592-5.344-11.936-11.936-11.936-2.432 0-4.672 0.736-6.56 1.952l-111.872 67.744c-4.736 2.88-10.464 4.608-16.576 4.608s-11.84-1.696-16.736-4.672l-112.256-66.72c-1.792-1.12-3.968-1.792-6.304-1.792-6.592 0-11.936 5.344-11.936 11.936 0 1.152 0.16 2.272 0.48 3.36l31.68 125.248c0.576 2.272 0.896 4.896 0.896 7.584 0 9.728-4.288 18.432-11.104 24.32l-100.48 87.328c-2.688 2.208-4.416 5.536-4.416 9.28 0 6.528 5.216 11.808 11.712 11.936l50.72 3.424c11.392 0.544 20.448 9.952 20.448 21.44 0 1.024-0.064 2.048-0.224 3.072v-0.128c-1.152 10.88-10.272 19.296-21.344 19.296-0.384 0-0.768 0-1.152-0.032l-106.976-5.856c-16.896-1.056-30.24-15.040-30.24-32.128 0-9.632 4.224-18.272 10.912-24.16l137.792-120-43.392-173.12c-0.768-2.624-1.216-5.664-1.216-8.8 0-17.76 14.4-32.192 32.192-32.192 6.624 0 12.8 2.016 17.92 5.44l153.984 92.096 153.344-93.12c4.96-3.296 11.072-5.28 17.632-5.28 17.76 0 32.192 14.4 32.192 32.192 0 2.912-0.384 5.728-1.12 8.416l-22.88 90.24c-2.432 9.344-10.816 16.16-20.8 16.16-1.28 0-2.496-0.096-3.712-0.32zM653.664 285.376c3.712-3.168 8.576-5.12 13.888-5.12s10.176 1.92 13.92 5.12l124.544 107.008c6.304 5.888 10.272 14.272 10.272 23.552 0 16.672-12.672 30.368-28.896 32.032l-179.584 10.976-67.52 170.656c-4.8 11.936-16.288 20.224-29.728 20.224 0 0-0.032 0-0.032 0v0c0 0-0.032 0-0.032 0-13.44 0-24.928-8.288-29.632-20.032l-61.76-152.832c-0.992-2.368-1.536-5.12-1.536-8 0-7.744 4.096-14.496 10.24-18.272l0.096-0.064c3.168-1.952 7.008-3.104 11.104-3.104 8.928 0 16.576 5.44 19.808 13.184l40.512 100.096c1.728 4.608 6.080 7.84 11.2 7.84s9.504-3.232 11.2-7.744l48.8-123.456c4.64-11.424 15.296-19.488 27.936-20.224l130.272-8.064c6.4-0.256 11.488-5.504 11.488-11.936 0-3.744-1.696-7.072-4.384-9.248l-81.952-70.464c-4.544-3.968-7.392-9.76-7.392-16.224s2.848-12.256 7.392-16.192zM512 691.808c13.472 0 24.384 10.912 24.384 24.384v73.152c0 13.472-10.912 24.384-24.384 24.384s-24.384-10.912-24.384-24.384v-73.152c0-13.472 10.912-24.384 24.384-24.384zM609.536 592.832c13.472 0 24.384 10.912 24.384 24.384v172.128c0 13.472-10.912 24.384-24.384 24.384s-24.384-10.912-24.384-24.384v-172.128c0-13.472 10.912-24.384 24.384-24.384zM707.040 498.208c13.472 0 24.384 10.912 24.384 24.384v266.72c0 13.472-10.912 24.384-24.384 24.384s-24.384-10.912-24.384-24.384v-266.72c0-13.472 10.912-24.384 24.384-24.384zM413.024 592.832c13.472 0 24.384 10.912 24.384 24.384v172.128c0 13.472-10.912 24.384-24.384 24.384s-24.384-10.912-24.384-24.384v-172.128c0-13.472 10.912-24.384 24.384-24.384zM315.488 498.208c13.472 0 24.384 10.912 24.384 24.384v266.72c0 13.472-10.912 24.384-24.384 24.384s-24.384-10.912-24.384-24.384v-266.72c0-13.472 10.912-24.384 24.384-24.384z" />
<glyph unicode="&#xe91d;" glyph-name="logo-ok" d="M461.284 238.735c-79.872 8.279-151.888 27.829-213.545 75.758-7.651 5.963-15.55 11.711-22.531 18.371-26.988 25.76-29.707 55.263-8.352 85.667 18.269 26.017 48.935 32.977 80.811 18.038 6.172-2.896 12.053-6.51 17.685-10.393 114.909-78.47 272.765-80.637 388.105-3.529 11.427 8.708 23.643 15.808 37.799 19.434 27.526 7.024 53.198-3.025 67.97-26.962 16.876-27.337 16.66-54.019-4.133-75.243-31.897-32.538-70.257-56.078-112.88-72.508-40.303-15.53-84.447-23.347-128.138-28.539 6.593-7.132 9.7-10.638 13.823-14.756 59.326-59.243 118.912-118.238 178.044-177.662 20.146-20.247 24.354-45.354 13.262-68.905-12.129-25.739-39.278-42.673-65.898-40.861-16.866 1.158-30.020 9.502-41.706 21.202-44.77 44.775-90.382 88.724-134.246 134.346-12.765 13.266-18.905 10.757-30.17-0.762-45.040-46.082-90.814-91.458-136.857-136.576-20.675-20.258-45.278-23.905-69.254-12.333-25.487 12.279-41.706 38.137-40.453 64.122 0.863 17.578 9.559 31.005 21.699 43.049 58.711 58.266 117.261 116.682 175.833 175.044 3.874 3.883 7.488 8.001 13.132 13.996zM509.939 441.696c-142.49 0.482-259.33 117.883-258.499 259.725 0.82 143.408 117.737 258.975 261.629 258.578 144.183-0.386 259.913-117.615 259.189-262.514-0.734-141.552-118.384-256.283-262.319-255.789zM639.437 701.078c-0.249 70.427-56.683 126.495-127.404 126.559-71.315 0.076-128.257-57.011-127.707-128.082 0.529-70.16 57.449-125.83 128.365-125.573 70.7 0.246 126.983 56.679 126.746 127.097z" />
<glyph unicode="&#xe91e;" glyph-name="cycle" d="M684.928 476.448v25.024c0 26.176-12.512 51.2-34.144 65.984l-77.376 54.624v30.72c0 7.968 2.272 17.056 6.816 23.904 7.968 12.512 11.392 27.296 11.392 40.96v53.472c0 35.264-22.752 65.984-55.744 76.224-19.328 5.696-39.808 6.816-59.168 0-32.992-11.392-55.744-42.112-55.744-76.224v-53.472c0-14.784 3.424-28.448 11.392-40.96 4.544-6.816 6.816-15.936 6.816-23.904v-30.72l-75.104-54.624c-21.632-14.784-34.144-39.808-34.144-65.984v-25.024c0-9.088 7.968-17.056 17.056-17.056s17.056 7.968 17.056 17.056v25.024c0 14.784 6.816 29.568 19.328 37.536l84.192 59.168c4.544 3.424 6.816 7.968 6.816 13.664v40.96c0 14.784-3.424 28.448-11.392 40.96-4.544 6.816-6.816 15.936-6.816 23.904v53.472c0 20.48 12.512 37.536 31.872 44.384 12.512 3.424 25.024 3.424 37.536 0 19.328-6.816 31.872-23.904 31.872-44.384v-53.472c0-7.968-2.272-17.056-6.816-23.904-7.968-12.512-11.392-27.296-11.392-40.96v-38.688c0-5.696 2.272-10.24 6.816-13.664l84.192-59.168c12.512-9.088 19.328-22.752 19.328-37.536v-25.024c0-9.088 7.968-17.056 17.056-17.056s18.208 5.696 18.208 14.784zM332.224 152.192l-77.376 54.624v30.72c0 7.968 2.272 17.056 6.816 23.904 7.968 12.512 11.392 27.296 11.392 40.96v53.472c0 35.264-22.752 65.984-55.744 76.224-19.328 6.816-39.808 6.816-59.168 0-32.992-11.392-55.744-42.112-55.744-76.224v-53.472c0-14.784 3.424-28.448 11.392-40.96 4.544-6.816 6.816-15.936 6.816-23.904v-30.72l-75.104-54.624c-21.632-14.784-34.144-39.808-34.144-65.984v-25.024c0-9.088 7.968-17.056 17.056-17.056s17.056 7.968 17.056 17.056v25.024c0 14.784 6.816 29.568 19.328 37.536l84.192 59.168c4.544 3.424 6.816 7.968 6.816 13.664v38.688c0 14.784-3.424 28.448-11.392 40.96-4.544 6.816-6.816 15.936-6.816 23.904v53.472c0 20.48 12.512 37.536 31.872 44.384 12.512 3.424 25.024 3.424 37.536 0 19.328-6.816 31.872-23.904 31.872-44.384v-53.472c0-7.968-2.272-17.056-6.816-23.904-7.968-12.512-11.392-27.296-11.392-40.96v-37.536c0-5.696 2.272-10.24 6.816-13.664l84.192-59.168c12.512-9.088 19.328-22.752 19.328-37.536v-26.176c0-9.088 7.968-17.056 17.056-17.056s17.056 7.968 17.056 17.056v25.024c1.152 26.176-12.512 51.2-32.992 65.984zM978.496 152.192l-77.376 54.624v30.72c0 7.968 2.272 17.056 6.816 23.904 7.968 12.512 11.392 27.296 11.392 40.96v53.472c0 35.264-22.752 65.984-55.744 76.224-19.328 6.816-39.808 6.816-59.168 0-32.992-11.392-55.744-42.112-55.744-76.224v-53.472c0-14.784 3.424-28.448 11.392-40.96 4.544-6.816 6.816-15.936 6.816-23.904v-30.72l-75.104-54.624c-21.632-14.784-34.144-39.808-34.144-65.984v-25.024c0-9.088 7.968-17.056 17.056-17.056s17.056 7.968 17.056 17.056v25.024c0 14.784 6.816 29.568 19.328 37.536l84.192 59.168c4.544 3.424 6.816 7.968 6.816 13.664v38.688c0 14.784-3.424 28.448-11.392 40.96-4.544 6.816-6.816 15.936-6.816 23.904v53.472c0 20.48 12.512 37.536 31.872 44.384 12.512 4.544 25.024 4.544 37.536 0 19.328-6.816 31.872-23.904 31.872-44.384v-53.472c0-7.968-2.272-17.056-6.816-23.904-7.968-12.512-11.392-27.296-11.392-40.96v-37.536c0-5.696 2.272-10.24 6.816-13.664l84.192-59.168c12.512-9.088 19.328-22.752 19.328-37.536v-26.176c0-9.088 7.968-17.056 17.056-17.056s18.208 7.968 18.208 17.056v25.024c0 26.176-12.512 51.2-34.144 65.984zM633.728 235.232l-109.216 64.864v119.456c0 9.088-7.968 17.056-17.056 17.056s-17.056-7.968-17.056-17.056v-119.456l-109.216-64.864c-7.968-4.544-10.24-14.784-5.696-23.904 3.424-5.696 9.088-7.968 14.784-7.968 3.424 0 5.696 1.152 9.088 2.272l108.096 64.864 108.096-64.864c2.272-1.152 5.696-2.272 9.088-2.272 5.696 0 11.392 3.424 14.784 7.968 4.544 7.968 2.272 18.208-5.696 23.904z" />
<glyph unicode="&#xe91f;" glyph-name="logo-telegram" d="M70.112 500.564c274.821 118.546 457.774 197.316 549.643 235.532 261.473 108.406 316.437 127.124 351.772 127.904 7.852 0 25.126-1.56 36.905-10.918 9.422-7.799 11.778-17.938 13.348-25.738 1.57-7.798 3.141-24.176 1.57-36.655-14.133-148.181-75.379-507.717-106.787-673.057-13.348-70.191-39.261-93.588-64.387-95.929-54.964-4.679-96.58 35.876-149.188 70.192-83.232 53.813-129.559 87.349-210.435 140.383-93.439 60.832-32.978 94.368 20.416 148.961 14.133 14.038 255.19 232.412 259.902 251.909 0.785 2.339 0.785 11.698-4.711 16.378s-13.348 3.12-19.63 1.559c-8.637-1.559-140.551-88.909-397.313-261.267-37.69-25.737-71.454-38.215-102.077-37.436-33.763 0.78-98.15 18.718-146.833 34.316-58.89 18.718-106.003 28.857-102.076 61.613 2.356 17.157 25.912 34.316 69.883 52.253z" />
<glyph unicode="&#xe920;" glyph-name="logo-rutube" d="M643.019 10.667l-241.984 254.401h214.718l199.946-209.327v-45.074h-172.679zM0 10.667v720.132h653.242c30.295 0 57.562-6.677 81.798-20.032 24.99-12.686 45.062-30.047 60.212-52.084 15.146-22.033 22.718-46.071 22.718-72.112v-190.299c0-26.039-7.572-50.079-22.718-72.112-15.15-21.367-35.222-38.729-60.212-52.081-24.237-12.688-51.503-19.029-81.798-19.029l-489.647-1.003v-241.38h-163.595zM170.41 398.278h474.881c2.271 0 3.786 0.333 4.543 0.998 1.515 1.335 2.272 2.672 2.272 4.007v177.278c0 2.005-0.757 3.342-2.272 4.006-0.757 1.337-2.272 2.002-4.543 2.002h-474.881c-2.272 0-4.164-0.666-5.679-2.002-0.757-0.665-1.136-2.001-1.136-4.006v-177.278c0-1.335 0.379-2.672 1.136-4.007 1.515-0.666 3.407-0.998 5.679-0.998zM920.985 678.257c56.894 0 103.015 46.355 103.015 103.538s-46.122 103.538-103.015 103.538c-56.893 0-103.014-46.355-103.014-103.538s46.122-103.538 103.014-103.538z" />
<glyph unicode="&#xe921;" glyph-name="exhibition" d="M323.296 173.952l-83.872-73.152c-5.248-4.512-8.544-11.136-8.544-18.528 0-13.472 10.912-24.384 24.384-24.384 6.080 0 11.616 2.208 15.872 5.888l83.84 73.12c5.248 4.512 8.544 11.136 8.544 18.528 0 13.472-10.912 24.384-24.384 24.384-6.080 0-11.616-2.208-15.872-5.888zM487.616 277.344h-291.36c-14.080 0.128-25.472 11.52-25.6 25.6v363.296c0.128 14.080 11.52 25.472 25.6 25.6h218.208c13.472 0 24.384 10.912 24.384 24.384s-10.912 24.384-24.384 24.384h-218.208c-41.024-0.128-74.24-33.344-74.368-74.336v-363.296c0.128-41.024 33.344-74.24 74.336-74.368h291.36v-121.92c0-13.472 10.912-24.384 24.384-24.384s24.384 10.912 24.384 24.384v121.92c0 26.944-21.824 48.768-48.768 48.768zM698.016 173.952c-4.224 3.648-9.792 5.856-15.84 5.856-13.472 0-24.384-10.912-24.384-24.384 0-7.392 3.296-14.016 8.512-18.496l83.904-73.184c4.224-3.648 9.792-5.856 15.84-5.856 13.472 0 24.384 10.912 24.384 24.384 0 7.392-3.296 14.016-8.512 18.496zM827.744 740.576h-291.36v73.152c0 13.472-10.912 24.384-24.384 24.384s-24.384-10.912-24.384-24.384v-73.152c0-26.944 21.824-48.768 48.768-48.768h291.36c14.080-0.128 25.472-11.52 25.6-25.6v-363.296c-0.128-14.080-11.52-25.472-25.6-25.6h-216.256c-13.472 0-24.384-10.912-24.384-24.384s10.912-24.384 24.384-24.384h216c0 0 0 0 0 0 41.12 0 74.464 33.248 74.592 74.336v363.296c-0.128 41.024-33.344 74.208-74.336 74.368zM332.32 462.368c8.32 3.488 14.048 11.552 14.048 20.96 0 12.512-10.144 22.688-22.688 22.688-4.896 0-9.44-1.568-13.152-4.192-35.296-19.2-80.864-48.704-70.624-85.056 8.288-29.248 46.336-35.36 81.664-35.36 8.032 0 15.84 0 24.384 0 14.624 0 30.976 2.688 48.768 5.12 27.968-29.568 67.488-47.936 111.296-47.936 73.824 0 135.456 52.256 149.92 121.792 64.544 29.28 125.248 67.552 113.792 107.296-3.648 12.448-14.624 48.768-152.64 29.504-27.968 29.472-67.392 47.776-111.136 47.776-84.576 0-153.12-68.544-153.12-153.12 0-23.072 5.088-44.96 14.24-64.576-12-1.152-25.376-2.336-39.040-2.336s-27.040 1.184-40.032 3.488c13.568 13.216 27.712 24.576 43.456 33.504zM502.976 389.248c-16.928 0.096-32.864 4.224-46.912 11.488 22.752 4.608 45.44 9.984 68.832 16.8 11.936 3.424 37.056 10.976 66.816 21.44-18.208-30.208-50.56-50.272-87.68-50.944zM719.968 556c-18.528-16.992-40.032-31.104-63.616-41.344-3.68 15.488-8.032 30.048-14.304 43.52 10.080 0.544 21.248 1.376 32.608 1.376 16.32 0 32.224-1.728 47.552-5.024zM399.104 492.608c0 57.824 46.88 104.704 104.704 104.704s104.704-46.88 104.704-104.704v0c-24.224-10.176-55.808-21.216-88.096-30.688-32.128-9.504-64.96-17.44-98.368-23.712-16.448 14.656-22.688 33.76-22.944 54.304z" />
<glyph unicode="&#xe922;" glyph-name="logo-youtube" d="M1002.599 698.667c-11.799 44.199-46.399 78.8-90.599 90.599-79.801 21.401-400 21.401-400 21.401s-320.199 0-400.199-21.401c-44.201-11.799-78.601-46.4-90.601-90.599-21.2-80-21.2-246.8-21.2-246.8s0-166.8 21.4-246.8c11.8-44.201 46.6-78.8 90.6-90.601 79.801-21.399 400-21.399 400-21.399s320.201 0 400.201 21.399c44.199 11.801 78.799 46.601 90.599 90.601 21.2 80 21.2 246.8 21.2 246.8s0 166.8-21.401 246.8zM410.201 298.667v306.4l265.2-152-265.2-154.4z" />
<glyph unicode="&#xe923;" glyph-name="logo-dzen" d="M0.225 462.487c7.964 253.606 225.852 457.833 496.423 465.301-2.588-194.412-16.771-303.7-94.589-376.639-77.813-72.939-194.416-86.24-401.834-88.662zM527.35 927.788c270.573-7.468 488.46-211.695 496.423-465.301-207.418 2.428-324.021 15.724-401.834 88.662-77.835 72.939-92.018 182.226-94.59 376.639zM1023.774 433.723c-7.964-253.606-225.851-457.834-496.423-465.301 2.572 194.412 16.771 303.7 94.59 376.639 77.812 72.944 194.416 86.234 401.834 88.662zM496.649-31.579c-270.572 7.468-488.459 211.695-496.423 465.301 207.418-2.429 324.021-15.724 401.834-88.662 77.818-72.939 92.001-182.227 94.589-376.639z" />
<glyph unicode="&#xe92f;" glyph-name="fpso" d="M974.4 578.496c3.104-3.104 7.392-5.024 12.128-5.024 9.44 0 17.088 7.648 17.088 17.088 0 4.704-1.888 8.96-4.992 12.064l-329.952 331.904c-3.104 3.104-7.392 5.024-12.128 5.024-9.44 0-17.088-7.648-17.088-17.088 0-4.704 1.888-8.96 4.992-12.064v0zM991.904 368.352l-171.456 172.032c12.16 13.184 19.616 30.848 19.616 50.24 0 20.352-8.192 38.752-21.44 52.16v0l-120.16 120.704c-13.312 13.536-31.808 21.888-52.256 21.888-19.424 0-37.088-7.552-50.176-19.904l0.032 0.032-161.12 162.24c-16.32 16.448-38.912 26.624-63.872 26.624s-47.584-10.176-63.872-26.592v0c-16.288-16.448-26.368-39.072-26.368-64.064 0-15.552 3.904-30.208 10.784-43.040l-0.224 0.48 92.832-174.88c2.944-5.44 8.576-9.056 15.072-9.056 9.44 0 17.088 7.648 17.088 17.088 0 2.944-0.736 5.696-2.048 8.128l0.032-0.096-92.608 174.752c-4.032 7.616-6.4 16.64-6.4 26.24 0 15.488 6.176 29.504 16.192 39.776v0c10.144 10.304 24.224 16.672 39.808 16.672s29.696-6.368 39.808-16.672v0l160.992-161.664-276.352-278.080c-2.24-2.24-4.128-4.832-5.6-7.68l-0.096-0.16-78.848-154.4c-2.944-0.896-8.544-3.2-18.56-7.52l-154.752-46.656c-18.88-5.824-32.352-23.136-32.352-43.584 0-12.576 5.12-23.968 13.344-32.192v0l74.976-75.904c2.688-2.592 6.24-4.32 10.176-4.672h0.064l-3.424-6.72c-2.24-4.192-3.584-9.184-3.584-14.496 0-17.216 13.952-31.168 31.168-31.168 5.312 0 10.304 1.312 14.656 3.648l-0.16-0.096 2.72 1.472 88.288-88.736c8.128-8.288 19.456-13.408 31.968-13.44v0c0.096 0 0.192 0 0.32 0 3.936 0 7.744 0.512 11.392 1.44l-0.32-0.064c15.584 4.032 27.744 15.744 32.352 30.752l54.72 182.368 147.904 76.128c3.008 1.568 5.6 3.456 7.84 5.696v0l276.352 278.88 171.232-172.384c10.048-10.24 16.256-24.32 16.256-39.808s-6.208-29.568-16.256-39.84v0c-10.080-10.24-24.096-16.576-39.584-16.576-9.664 0-18.784 2.464-26.688 6.816l0.288-0.16-173.504 93.056c-2.176 1.088-4.768 1.728-7.488 1.728-9.44 0-17.056-7.648-17.056-17.056 0-6.24 3.328-11.68 8.32-14.656l0.064-0.032 174.080-93.312c12.288-6.784 26.944-10.752 42.528-10.752 24.928 0 47.488 10.208 63.712 26.688v0c16.224 16.416 26.24 39.008 26.24 63.936 0 25.152-10.208 47.936-26.688 64.384v0zM118.56 119.296v0.672l-75.424 75.328c-2.112 2.080-3.424 4.96-3.424 8.128 0 1.152 0.16 2.272 0.48 3.328l-0.032-0.096c0.992 3.84 3.872 6.88 7.552 8.064l0.096 0.032 140.736 42.432zM276.832-16.096c-1.184-3.808-4.192-6.72-8-7.712l-0.064-0.032c-0.768-0.192-1.696-0.288-2.624-0.288-3.104 0-5.92 1.248-7.968 3.264v0l-80.672 81.12 144.256 74.304zM794.272 562.336l-9.888-10.016-288.32-289.664-343.84-177.024-8.32 8.32 175.904 345.44 298.56 300.16c7.136 7.168 17.024 11.616 27.936 11.616s20.8-4.448 27.936-11.616v0l120.032-120.832c7.168-7.232 11.584-17.184 11.584-28.16s-4.416-20.928-11.584-28.16v0zM601.312 626.4v0c-0.032 0-0.096 0-0.128 0-22.208 0-42.304-9.088-56.768-23.776v0l-70.304-70.432c-14.56-14.72-23.552-34.944-23.552-57.28s8.992-42.592 23.552-57.28v0c14.464-14.688 34.56-23.776 56.768-23.776 0.032 0 0.096 0 0.128 0v0c0.032 0 0.096 0 0.128 0 22.208 0 42.304 9.088 56.768 23.776v0l70.080 70.432c14.592 14.688 23.584 34.944 23.584 57.28s-9.024 42.592-23.584 57.28v0c-14.432 14.656-34.496 23.744-56.64 23.776v0zM634.208 512.64l-70.080-70.432c-8.384-8.512-20-13.76-32.896-13.76v0c-12.864 0-24.512 5.28-32.864 13.76v0c-8.448 8.544-13.664 20.256-13.664 33.216s5.216 24.704 13.664 33.216v0l70.528 69.856c8.384 8.512 20 13.76 32.896 13.76v0c0 0 0.032 0 0.032 0 12.864 0 24.48-5.28 32.832-13.76v0c8.32-8.512 13.44-20.16 13.44-32.992 0-13.056-5.312-24.896-13.888-33.44v0z" />
<glyph unicode="&#xe930;" glyph-name="graduate" d="M858.912 773.632c-0.16 4.448-1.984 8.448-4.896 11.392v0l-164.864 164.288c-3.072 3.072-7.36 4.992-12.064 4.992s-8.96-1.92-12.064-4.992v0-0.672h-500.064c-9.44 0-17.056-7.648-17.056-17.056v0-967.104c0-9.44 7.648-17.056 17.056-17.056v0h682.656c9.44 0 17.056 7.648 17.056 17.056v0 796.448c0 5.088-2.24 9.632-5.792 12.736l-0.032 0.032zM830.592-18.496h-648.544v932.992h493.696l136.544-136.544h-118.208v68.256c0 9.44-7.648 17.056-17.056 17.056s-17.056-7.648-17.056-17.056v0-85.344c0-9.44 7.648-17.056 17.056-17.056v0h153.6zM284.448 743.808h113.792c9.44 0 17.056 7.648 17.056 17.056s-7.648 17.056-17.056 17.056v0h-113.792c-9.44 0-17.056-7.648-17.056-17.056s7.648-17.056 17.056-17.056v0zM449.408 573.152h-164.992c-9.44 0-17.056-7.648-17.056-17.056s7.648-17.056 17.056-17.056v0h164.992c9.44 0 17.056 7.648 17.056 17.056s-7.648 17.056-17.056 17.056v0zM642.848 556.096c0-9.44 7.648-17.056 17.056-17.056v0h85.344c9.44 0 17.056 7.648 17.056 17.056s-7.648 17.056-17.056 17.056v0h-85.344c-9.44 0-17.056-7.648-17.056-17.056v0zM603.008 556.096c0 9.44-7.648 17.056-17.056 17.056v0h-56.896c-9.44 0-17.056-7.648-17.056-17.056s7.648-17.056 17.056-17.056v0h56.896c9.44 0 17.056 7.648 17.056 17.056v0zM654.208 385.408c-0.064 0-0.16 0-0.256 0-62.848 0-113.792-50.944-113.792-113.792 0-29.056 10.88-55.552 28.8-75.648l-0.096 0.128c-0.064-0.608-0.128-1.312-0.128-2.048s0.032-1.44 0.128-2.144v0.096-160.544c0.032-9.408 7.648-17.024 17.056-17.024 3.104 0 5.984 0.832 8.512 2.272l-0.096-0.032 59.84 34.144 59.84-34.144c2.432-1.408 5.312-2.208 8.416-2.208 9.408 0 17.024 7.616 17.056 17.024v160.544c0.064 0.608 0.128 1.312 0.128 2.048s-0.032 1.44-0.128 2.144v-0.096c17.824 20 28.704 46.496 28.704 75.552 0 62.848-50.944 113.792-113.792 113.792-0.096 0-0.192 0-0.288 0v0zM654.208 351.296c44 0 79.648-35.648 79.648-79.648s-35.648-79.648-79.648-79.648c-44 0-79.648 35.648-79.648 79.648v0c0 44 35.648 79.648 79.648 79.648v0zM662.656 85.152c-2.432 1.408-5.312 2.208-8.416 2.208s-5.984-0.832-8.512-2.272l0.096 0.032-42.784-24v108.992c14.88-7.744 32.512-12.32 51.2-12.32s36.32 4.544 51.84 12.608l-0.64-0.288v-108.992zM455.104 300.096c-0.032 0-0.096 0-0.16 0-6.944 0-13.184 2.912-17.6 7.616v0c-10.304 9.408-24.032 15.136-39.136 15.136s-28.864-5.76-39.2-15.2l0.032 0.032c-4.48-4.704-10.752-7.616-17.76-7.616s-13.28 2.912-17.728 7.616v0c-10.112 9.376-23.712 15.136-38.624 15.136-0.16 0-0.352 0-0.544 0h0.032c-9.44 0-17.056-7.648-17.056-17.056s7.648-17.056 17.056-17.056v0c0.064 0 0.128 0 0.192 0 6.912 0 13.152-2.912 17.536-7.616v0c10.272-9.376 24-15.104 39.072-15.104s28.8 5.728 39.136 15.136l-0.032-0.032c4.48 4.704 10.816 7.648 17.792 7.648s13.312-2.912 17.792-7.616v0c10.112-9.376 23.712-15.136 38.624-15.136 0.16 0 0.352 0 0.544 0h-0.032c9.44 0 17.056 7.648 17.056 17.056s-7.648 17.056-17.056 17.056v0z" />
<glyph unicode="&#xe931;" glyph-name="guap-logo" d="M889.184 548.416c-63.104 16.448-148.384 28.384-242.528 34.176 1.568-24.992 2.592-50.72 3.296-76.832 172.064-11.2 263.040-40.224 291.040-57.856-37.856-24.448-183.968-62.080-428.928-62.080s-391.904 37.696-429.152 62.144c35.68 23.52 169.376 59.008 400.704 61.92 21.024 0.128 38.016 17.216 38.016 38.24 0 21.12-17.12 38.24-38.24 38.24-0.096 0-0.16 0-0.256 0h-0.448c-113.344-1.408-482.688-15.68-482.688-138.432 0-132 426.496-138.592 512-138.592s512 6.656 512 138.656c0 58.4-76.896 85.216-134.816 100.32zM569.76 310.112c-11.2-172.448-40.224-263.136-57.856-291.104-24.448 37.856-62.080 183.968-62.080 428.928s37.632 391.36 62.144 429.056c23.52-36.608 60.128-176.128 62.080-409.792 0.192-20.992 17.248-37.952 38.24-37.952 0 0 0 0 0 0v0c0 0 0 0 0 0 21.12 0 38.24 17.12 38.24 38.24 0 0.128 0 0.288 0 0.416-1.088 124.928-12.32 242.016-31.36 329.664-24.608 110.848-58.624 162.4-107.232 162.4-132 0-138.656-426.496-138.656-512s6.656-512 138.656-512c58.464 0 85.28 76.896 100.32 134.752 16.448 63.168 28.384 148.544 34.176 242.976-28.288-1.952-54.464-2.976-76.736-3.616z" />
<glyph unicode="&#xe932;" glyph-name="institute-partners" d="M1015.936 523.552l-17.536 28.672c-3.136 4.256-8.128 6.976-13.76 6.976-9.44 0-17.056-7.648-17.056-17.056 0-2.784 0.672-5.408 1.856-7.744l17.472-28.576c0.576-0.96 0.928-2.112 0.928-3.36 0-2.176-1.088-4.128-2.72-5.28l-68.288-46.88c-1.024-0.672-2.272-1.088-3.616-1.088-2.304 0-4.32 1.184-5.472 3.008l-130.048 212c-0.576 0.928-0.896 2.080-0.896 3.296 0 2.208 1.12 4.16 2.816 5.344l68.96 46.656c1.12 0.992 2.624 1.632 4.256 1.632 0.192 0 0.384 0 0.576-0.032 1.728-0.384 3.168-1.472 4.064-2.912l65.44-107.552c2.976-5.248 8.544-8.736 14.912-8.736 9.44 0 17.056 7.648 17.056 17.056 0 3.52-1.056 6.784-2.88 9.472l-65.376 107.456c-7.296 11.616-20.032 19.232-34.528 19.232-8.32 0-16.064-2.496-22.496-6.816l-68.8-46.56c-10.784-7.36-17.76-19.584-17.76-33.472 0-6.176 1.408-12.064 3.872-17.312-5.12-6.464-12.768-11.008-21.504-11.808-14.176 1.6-26.912 4.32-39.136 8.128-30.592 9.408-67.616 15.616-105.92 16.864-65.088 0.032-113.344-2.72-147.936-37.312v0c-2.4-1.248-14.784-6.592-53.92-6.592-35.040 0-76.448 22.752-98.528 37.536 0.896 3.2 1.408 6.848 1.408 10.624 0 13.824-6.944 26.048-17.568 33.312l-69.088 46.752c-6.304 4.192-14.048 6.72-22.368 6.72-14.496 0-27.232-7.616-34.432-19.040l-20.576-34.304c-1.792-2.656-2.848-5.92-2.848-9.408 0-9.44 7.648-17.056 17.056-17.056 6.368 0 11.936 3.488 14.848 8.672l20.512 34.208c1.152 1.824 3.2 3.040 5.504 3.040 1.344 0 2.592-0.416 3.648-1.12l68.928-46.624c1.728-1.152 2.88-3.104 2.88-5.312 0-1.216-0.352-2.368-0.96-3.36l-125.152-205.792c-0.032 0-0.064 0-0.096 0-5.952 0-11.168-3.040-14.176-7.68l-67.296 45.44c-1.664 1.184-2.752 3.104-2.752 5.312 0 1.248 0.352 2.4 0.96 3.36l61.088 100.448c1.376 2.4 2.176 5.28 2.176 8.32 0 9.44-7.648 17.056-17.056 17.056-5.92 0-11.136-3.008-14.176-7.584l-62.272-100.192c-3.776-6.048-6.016-13.408-6.016-21.28 0-13.728 6.816-25.888 17.28-33.248l68.384-46.976c6.368-4.384 14.24-7.008 22.752-7.040 0.032 0 0.096 0 0.128 0 6.208 0 12.096 1.472 17.28 4.096 34.528-21.024 64.16-46.272 89.12-75.616l0.416-0.512c-8-8.992-12.896-20.896-12.896-33.92 0-25.216 18.272-46.176 42.304-50.336 0.096-1.76-0.032-3.744-0.032-5.76 0-28.224 22.88-51.072 51.072-51.072 3.648 0 7.232 0.384 10.656 1.12 5.76-21.92 25.504-37.728 48.96-37.728 15.168 0 28.8 6.624 38.176 17.12l0.032 0.064c8.512-17.12 25.856-28.64 45.888-28.64 15.232 0 28.896 6.656 38.24 17.216l14.944 15.296 58.72-37.312c8.256-5.312 18.368-8.48 29.184-8.48 15.84 0 30.112 6.752 40.064 17.536l2.528 2.784c6.816 7.488 11.584 16.96 13.376 27.456 4.064-0.736 8.672-1.376 13.408-1.376 15.744 0 29.92 6.784 39.744 17.568l2.528 2.784c8.384 9.216 13.664 21.408 14.112 34.848l2.048 0.096c0.064 0 0.128 0 0.192 0 15.904 0 30.208 6.816 40.16 17.696l2.528 2.784c6.816 7.456 11.584 16.896 13.376 27.328 4.608-1.056 9.824-1.856 15.232-1.856 15.84 0 30.112 6.784 40.064 17.6l2.528 2.784c8.928 9.6 14.4 22.528 14.4 36.736 0 10.112-2.784 19.584-7.616 27.68l60.096 48.352c6.112-3.968 13.568-6.304 21.6-6.304 8.512 0 16.416 2.656 22.912 7.2l68.128 46.784c10.72 7.424 17.632 19.648 17.632 33.504 0 7.808-2.208 15.104-6.016 21.28zM678.912 613.76c13.472-4.384 29.152-7.52 45.344-8.832 16.032 0.256 29.888 6.24 40.256 15.904l105.536-172.864-63.936-51.776-256.128 160.192c-6.208 4.032-13.76 6.4-21.888 6.4s-15.712-2.4-22.048-6.496l-100.864-66.24c-0.992-0.64-2.176-1.024-3.488-1.024-1.92 0-3.648 0.832-4.832 2.144l-15.712 17.632c24.928 34.528 49.184 64.608 74.912 93.344l-0.96-1.088 1.248 1.248c23.328 23.328 56.896 27.296 123.104 27.296 35.872-1.184 69.92-6.912 102.272-16.672zM238.944 307.584c-0.032 0.288-0.032 0.608-0.032 0.96 0 4.352 1.664 8.352 4.352 11.36l50.4 56.864c3.136 3.488 7.648 5.664 12.672 5.664 9.408 0 17.056-7.616 17.056-17.056 0-4.384-1.664-8.384-4.352-11.392l-50.4-56.864c-3.136-3.456-7.648-5.632-12.672-5.632-9.088 0-16.512 7.104-17.024 16.032zM286.848 239.328c-3.488 3.136-5.664 7.648-5.664 12.704 0 4.352 1.632 8.32 4.32 11.328l79.616 88.96c2.816 3.2 6.816 5.344 11.328 5.696h1.088c0.064 0 0.128 0 0.16 0 9.376 0 16.96-7.584 16.96-16.96 0-4.384-1.664-8.384-4.384-11.392l-79.648-88.96c-3.104-3.232-7.488-5.248-12.32-5.248-4.384 0-8.352 1.632-11.392 4.352zM346.56 202.816c-3.52 3.136-5.696 7.648-5.696 12.672 0 4.352 1.632 8.352 4.352 11.328l62.56 70.4c2.816 3.2 6.816 5.344 11.328 5.696h1.888c0.064 0 0.128 0 0.16 0 9.376 0 16.96-7.584 16.96-16.96 0-4.384-1.664-8.384-4.384-11.392v0l-62.592-70.432c-3.104-3.488-7.648-5.696-12.672-5.696-4.576 0-8.736 1.824-11.808 4.768zM455.104 193.12c-3.136-3.488-7.648-5.664-12.672-5.664-9.408 0-17.056 7.616-17.056 17.056 0 4.384 1.664 8.384 4.352 11.392l35.040 39.36c2.816 3.2 6.816 5.312 11.328 5.696h1.76c9.344-0.096 16.864-7.712 16.864-17.056 0-4.32-1.6-8.288-4.256-11.296zM799.392 331.712l-2.496-2.72c-3.744-4.064-9.088-6.592-15.008-6.592-4.064 0-7.84 1.184-11.008 3.232l-19.040 12.128c-1.664 1.824-3.424 3.488-5.28 5.056-2.272 1.76-4.928 2.912-7.84 3.36l-100.448 63.712c-2.688 1.824-5.984 2.944-9.568 2.944-9.44 0-17.056-7.648-17.056-17.056 0-6.208 3.296-11.616 8.224-14.592l109.856-69.664c2.4-3.264 3.84-7.392 3.84-11.84 0-5.312-2.080-10.176-5.44-13.76l-2.496-2.72c-3.744-4.064-9.088-6.592-15.008-6.592-4.064 0-7.84 1.184-11.008 3.232l-10.624 6.784-1.248 1.248c-1.248 0.96-2.656 1.76-4.192 2.336l-81.248 51.584c-2.688 1.824-5.984 2.944-9.568 2.944-9.44 0-17.056-7.648-17.056-17.056 0-6.208 3.296-11.616 8.224-14.592l84.832-53.856c3.744-3.68 6.080-8.8 6.080-14.464 0-5.312-2.048-10.144-5.408-13.76l-2.496-2.72c-3.744-4.064-9.088-6.592-15.008-6.592-4.064 0-7.84 1.184-11.008 3.232l-14.368 9.152c-2.336 2.72-4.864 5.152-7.616 7.296-2.72 2.112-5.952 3.424-9.504 3.616l-37.6 23.904c-2.496 1.504-5.536 2.432-8.768 2.432-9.44 0-17.056-7.648-17.056-17.056 0-5.856 2.944-11.040 7.456-14.112l49.568-31.776c1.76-2.944 2.784-6.464 2.784-10.24 0-5.312-2.048-10.176-5.408-13.792l-2.496-2.72c-3.744-4.064-9.088-6.592-15.008-6.592-4.064 0-7.84 1.184-11.008 3.232l-54.208 34.080c6.752 8.544 10.816 19.488 10.816 31.392 0 28.16-22.816 50.976-50.976 50.976-1.088 0-2.144-0.032-3.2-0.096-0.992 0-2.144 0-3.264 0-3.392 22.080-20.672 39.296-42.496 42.528-0.192 1.152-0.128 2.464-0.128 3.776s-0.064 2.624-0.16 3.936c-1.504 26.688-23.648 47.904-50.784 47.904-9.088 0-17.632-2.4-25.024-6.56-7.904 18.080-25.664 30.336-46.304 30.336-15.2 0-28.832-6.656-38.176-17.184l-27.008-30.88c-25.6 29.344-54.88 54.528-87.36 75.168l109.888 183.584c27.072-17.28 72.576-41.536 114.816-41.536 6.816 0 13.088 0 19.104 0-18.432-22.752-36.736-47.904-46.528-61.216-3.296-4.608-5.28-10.336-5.28-16.544 0-7.232 2.688-13.856 7.136-18.88l18.528-20.8c7.52-8.32 18.336-13.504 30.336-13.504 8.256 0 15.936 2.464 22.368 6.656l100.992 66.336c0.992 0.64 2.176 0.992 3.456 0.992s2.496-0.384 3.488-1.024l265.312-166.112c4.672-3.776 7.648-9.504 7.648-15.904 0-5.312-2.048-10.176-5.376-13.792z" />
<glyph unicode="&#xe934;" glyph-name="job" horiz-adv-x="896" d="M523.104 74.656c-9.888-1.984-17.248-10.592-17.248-20.928 0-1.408 0.128-2.816 0.416-4.16 0.672-3.232 1.056-7.072 1.056-11.040 0-0.128 0-0.256 0-0.384 0 0 0-0.032 0-0.032 0-32.768-26.56-59.296-59.296-59.296s-59.296 26.56-59.296 59.296c0 32.768 26.56 59.296 59.296 59.296 4.224 0 8.352-0.448 12.32-1.28 0.896-0.192 2.368-0.352 3.872-0.352 12 0 21.76 9.728 21.76 21.76 0 10.496-7.456 19.264-17.344 21.312-6.432 1.376-13.664 2.144-21.056 2.144-0.128 0-0.288 0-0.416 0 0.032 0 0 0 0 0-56.32 0-101.984-45.664-101.984-101.984s45.664-101.984 101.984-101.984c56.32 0 101.984 45.664 101.984 101.984 0 6.944-0.704 13.728-2.016 20.288-2.24 8.768-10.624 15.616-20.608 15.616-1.184 0-2.368-0.096-3.52-0.288zM755.84 597.344c-5.312 5.536-12.8 8.96-21.056 8.96-1.76 0-3.488-0.16-5.152-0.448l-526.336-91.712c-15.264 25.248-25.376 55.264-28.096 87.36l558.656 91.424c13.888 2.432 24.32 14.4 24.32 28.8 0 2.816-0.384 5.504-1.12 8.096-39.968 134.080-162.336 230.304-307.168 230.304-139.328 0-257.856-89.056-301.792-213.312-1.28-4.096-1.6-6.208-1.6-8.416 0-11.776 9.536-21.344 21.344-21.344 9.024 0 16.736 5.6 19.84 13.504 38.72 109.824 141.44 187.008 262.208 187.008 120.128 0 222.432-76.384 260.96-183.232l-552.768-91.52c-14.848-2.432-26.048-15.2-26.048-30.528 0-0.288 0-0.576 0-0.864 1.696-47.040 15.84-90.496 39.232-127.52 4.384-8.48 14.208-14.848 25.504-14.848 1.536 0 3.040 0.128 4.544 0.352l515.040 91.712c-10.080-33.28-25.024-62.208-44.256-87.744l-398.432-74.592c-13.6-2.56-23.776-14.368-23.776-28.544 0-6.72 2.272-12.896 6.112-17.824l93.376-121.12c22.24-28.48 56.576-46.624 95.136-46.72h9.184c0.096 0 0.224 0 0.352 0 38.016 0 71.872 17.76 93.76 45.408l70.816 90.048c2.656 3.52 4.256 7.968 4.256 12.8 0 11.776-9.536 21.344-21.344 21.344-6.944 0-13.12-3.328-17.024-8.48l-70.24-89.664c-14.24-17.984-36.064-29.44-60.576-29.44-0.096 0-0.16 0-0.256 0h-9.152c-24.608 0.512-46.336 12.384-60.224 30.528l-79.936 103.872 381.44 72.096c7.232 1.344 13.376 5.216 17.664 10.592 28.192 35.968 49.024 79.008 59.584 125.92 0.768 3.84 0.96 5.792 0.96 7.776 0 7.744-3.072 14.784-8.032 19.968z" />
<glyph unicode="&#xe935;" glyph-name="laureate" d="M985.312 755.2h-946.624c-21.632 0-38.688-17.056-38.688-38.688v-547.264c0-22.752 17.056-39.808 38.688-39.808h604.16c9.088 0 17.056 7.968 17.056 17.056s-7.968 17.056-17.056 17.056h-604.16c-2.272 0-4.544 2.272-4.544 4.544v548.416c0 2.272 2.272 4.544 4.544 4.544h945.504c2.272 0 4.544-2.272 4.544-4.544v-547.264c0-2.272-2.272-4.544-4.544-4.544h-58.016c-9.088 0-17.056-7.968-17.056-17.056s7.968-17.056 17.056-17.056h58.016c21.632 0 38.688 17.056 38.688 38.688v547.264c1.152 21.632-15.936 38.688-37.536 38.688zM927.296 322.848c0 69.408-55.744 125.152-125.152 125.152s-125.152-55.744-125.152-125.152c0-36.416 15.936-68.256 39.808-91.008v-204.8c0-6.816 3.424-12.512 10.24-15.936 5.696-2.272 12.512-2.272 18.208 2.272l56.896 47.776 56.896-47.776c3.424-2.272 6.816-3.424 11.392-3.424 2.272 0 4.544 0 6.816 1.152 5.696 2.272 10.24 9.088 10.24 15.936v204.8c23.904 22.752 39.808 54.624 39.808 91.008zM711.104 322.848c0 50.048 40.96 91.008 91.008 91.008s91.008-40.96 91.008-91.008-40.96-91.008-91.008-91.008-91.008 40.96-91.008 91.008zM853.344 63.424l-39.808 34.144c-6.816 5.696-15.936 5.696-21.632 0l-39.808-34.144v145.632c15.936-6.816 32.992-11.392 51.2-11.392s35.264 4.544 51.2 11.392v-145.632zM108.096 607.296h557.504c9.088 0 17.056 7.968 17.056 17.056s-7.968 17.056-17.056 17.056h-557.504c-9.088 0-17.056-7.968-17.056-17.056s7.968-17.056 17.056-17.056zM108.096 527.648h557.504c9.088 0 17.056 7.968 17.056 17.056s-7.968 17.056-17.056 17.056h-557.504c-9.088 0-17.056-7.968-17.056-17.056s7.968-17.056 17.056-17.056zM108.096 448h557.504c9.088 0 17.056 7.968 17.056 17.056s-7.968 17.056-17.056 17.056h-557.504c-9.088 0-17.056-7.968-17.056-17.056s7.968-17.056 17.056-17.056z" />
<glyph unicode="&#xe937;" glyph-name="logo-fdpo" d="M492.256 236.736h-87.872c-34.816 0.064-63.008 28.288-63.040 63.104v342.592c0 13.696-11.104 24.832-24.832 24.832s-24.832-11.104-24.832-24.832v-342.56c0.064-62.24 50.528-112.704 112.768-112.768h87.808c13.696 0 24.832 11.104 24.832 24.832s-11.104 24.832-24.832 24.832zM412.96 616.608h47.552c13.696 0 24.832 11.104 24.832 24.832s-11.104 24.832-24.832 24.832h-47.552c-13.696 0-24.832-11.104-24.832-24.832s11.104-24.832 24.832-24.832zM712.032 666.272h-166.496c-13.696 0-24.832-11.104-24.832-24.832s11.104-24.832 24.832-24.832h166.496c13.696 0 24.832 11.104 24.832 24.832s-11.104 24.832-24.832 24.832zM712.032 583.616h-47.616c-13.696 0-24.832-11.104-24.832-24.832s11.104-24.832 24.832-24.832h47.616c13.696 0 24.832 11.104 24.832 24.832s-11.104 24.832-24.832 24.832zM412.96 533.952h166.496c13.696 0 24.832 11.104 24.832 24.832s-11.104 24.832-24.832 24.832h-166.496c-13.696 0-24.832-11.104-24.832-24.832s11.104-24.832 24.832-24.832zM712.032 501.248h-105.504c-13.696 0-24.832-11.104-24.832-24.832s11.104-24.832 24.832-24.832h105.504c13.696 0 24.832 11.104 24.832 24.832s-11.104 24.832-24.832 24.832zM518.464 501.248h-105.504c-13.696 0-24.832-11.104-24.832-24.832s11.104-24.832 24.832-24.832h105.504c13.696 0 24.832 11.104 24.832 24.832s-11.104 24.832-24.832 24.832zM715.424 348.832c-13.696 0-24.832-11.104-24.832-24.832 0-27.424-22.24-49.664-49.664-49.664s-49.664 22.24-49.664 49.664c0 27.424 22.24 49.664 49.664 49.664 13.696 0 24.832 11.104 24.832 24.832s-11.104 24.832-24.832 24.832c-0.096 0-0.256 0-0.384 0-54.848 0-99.296-44.448-99.296-99.296 0-22.24 7.328-42.784 19.68-59.36l-0.192-111.872c0 0 0-0.032 0-0.032 0-13.696 11.104-24.832 24.832-24.832 3.008 0 5.888 0.544 8.544 1.504l47.36 16.96 51.744-17.184c2.336-0.8 5.024-1.28 7.808-1.28 13.696 0 24.832 11.104 24.832 24.832 0 0 0 0 0 0.032v118.336c0 0.48 0 0.992 0 1.504 9.088 14.656 14.464 32.416 14.464 51.456-0.032 13.696-11.136 24.768-24.832 24.768-0.032 0-0.096 0-0.128 0zM676.448 187.104l-27.232 9.056c-2.4 0.864-5.184 1.344-8.096 1.344s-5.696-0.512-8.288-1.408l-22.24-7.936v41.216c8.992-3.008 19.36-4.736 30.112-4.736 12.864 0 25.12 2.464 36.384 6.944zM831.616 646.272v9.056c-0.064 62.24-50.528 112.704-112.768 112.768h-402.976c-70.816-0.544-124.128-58.272-124.128-129.216 0-0.032 0-0.064 0-0.096 0-33.312 12.64-63.68 33.376-86.592 4.448-4.928 11.040-8.096 18.336-8.096 13.696 0 24.832 11.104 24.832 24.832 0 6.4-2.432 12.256-6.4 16.64-12.672 14.016-20.448 32.704-20.448 53.216 0 0.032 0 0.064 0 0.064 0 43.936 31.328 79.616 75.264 79.616h401.856c0.064 0 0.16 0 0.256 0 34.88 0 63.168-28.288 63.168-63.168 0 0 0 0 0 0v-355.488c-0.032-0.48-0.064-1.024-0.064-1.568s0.032-1.12 0.064-1.664c-0.512-11.744-4.192-22.624-10.208-31.808-2.464-3.456-4-8.064-4-13.024 0-5.824 2.144-11.136 5.664-15.2l2.72-3.008c4.224-4.672 10.304-7.616 17.056-7.616 7.84 0 14.752 3.936 18.88 9.952 12.544 17.856 20.032 39.968 20.032 63.84 0 0.032 0 0.064 0 0.096v341.312c0 1.792-0.192 3.552-0.512 5.248z" />
<glyph unicode="&#xe938;" glyph-name="logo-fspo" d="M674.304 710.144l-47.424-31.040c-3.072-2.048-5.632-4.672-7.52-7.712l-62.688-102.368c-2.24-3.648-3.584-8.096-3.584-12.832 0-7.168 3.040-13.632 7.904-18.176l0.64-0.512c0.96-0.864 2.016-1.696 3.136-2.432l0.096-0.064c29.568-18.016 49.024-50.080 49.024-86.688 0-47.776-33.152-87.84-77.696-98.432-11.84-2.752-20-12.576-20-24.352 0-13.696 11.104-24.832 24.832-24.832 0.032 0 0.064 0 0.064 0s0.032 0 0.064 0c1.952 0 3.872 0.224 5.696 0.64 67.136 16.064 116.384 75.68 116.384 146.848 0 45.536-20.192 86.336-52.064 114.016l47.584 78.368 25.888 16.928 36.928-36.928-20.288-30.528c-2.528-3.84-4.064-8.544-4.064-13.6 0-3.424 0.704-6.688 1.952-9.664l29.184-70.464c3.168-7.52 9.728-13.088 17.696-14.816l35.84-7.488v-52.192l-35.68-7.456c-8.16-1.76-14.72-7.296-17.824-14.656l-29.28-70.784c-1.184-2.816-1.888-6.048-1.888-9.472 0-5.056 1.504-9.76 4.128-13.696l19.936-30.432-36.928-36.928-30.272 20.288c-3.84 2.528-8.544 4.064-13.6 4.064-3.424 0-6.688-0.704-9.664-1.952l-70.464-29.408c-7.52-3.168-13.088-9.728-14.816-17.696l-7.424-35.648h-52.256l-3.84 18.624c-2.4 11.424-12.384 19.84-24.32 19.84-13.696 0-24.832-11.104-24.832-24.832 0-1.856 0.192-3.648 0.576-5.376l7.968-38.112c2.4-11.296 12.224-19.648 24-19.808h93.12c0 0 0.032 0 0.032 0 11.904 0 21.856 8.384 24.256 19.584l8.64 42.496 46.368 19.232 36.416-23.904c3.808-2.496 8.48-4 13.504-4 6.848 0 13.024 2.752 17.504 7.232l65.472 65.472c4.48 4.48 7.232 10.688 7.232 17.504 0 5.024-1.504 9.696-4.064 13.6l-23.776 36.352 19.36 46.56 42.624 8.864c11.136 2.56 19.36 12.352 19.424 24.064v93.088c0 0 0 0.032 0 0.032 0 11.904-8.384 21.856-19.584 24.256l-42.496 8.672-19.232 46.368 23.904 36.416c2.496 3.808 4 8.48 4 13.504 0 6.848-2.752 13.024-7.232 17.504l-65.536 65.6c-4.48 4.48-10.688 7.232-17.504 7.232-5.024 0-9.696-1.504-13.6-4.064zM465.44 767.616c0 0-0.032 0-0.032 0-11.904 0-21.856-8.384-24.256-19.584l-8.672-42.496-46.368-19.168-36.416 23.84c-3.808 2.496-8.48 4-13.504 4-6.848 0-13.024-2.752-17.504-7.232l-65.6-65.536c-4.48-4.48-7.232-10.688-7.232-17.504 0-5.024 1.504-9.696 4.064-13.6l23.776-36.352-19.232-46.496-42.624-8.864c-11.136-2.56-19.36-12.352-19.424-24.064v-93.088c0 0 0-0.032 0-0.032 0-11.904 8.384-21.856 19.584-24.256l42.496-8.64 19.232-46.368-23.84-36.416c-2.496-3.808-4-8.48-4-13.504 0-6.848 2.752-13.024 7.232-17.504l65.472-65.472c4.48-4.48 10.688-7.232 17.504-7.232 5.024 0 9.696 1.504 13.6 4.064l47.328 30.976c3.072 2.048 5.632 4.672 7.52 7.712l63.040 103.2c2.272 3.68 3.584 8.096 3.584 12.864 0 8.928-4.736 16.768-11.808 21.152l-0.096 0.064c-28.768 18.176-47.616 49.792-47.616 85.824 0 47.136 32.224 86.72 75.84 97.952 11.808 2.784 19.904 12.608 19.904 24.352 0 13.696-11.104 24.832-24.832 24.832-2.304 0-4.512-0.32-6.592-0.896-65.824-16.992-113.792-76-113.792-146.208 0-45.12 19.84-85.632 51.264-113.28l-48.128-79.2-25.888-16.928-37.248 36.928 20.544 30.592c2.528 3.84 4.064 8.544 4.064 13.6 0 3.424-0.704 6.688-1.952 9.664l-29.408 70.464c-3.168 7.52-9.728 13.088-17.696 14.816l-35.648 7.424v52.256l35.744 7.456c8.128 1.728 14.688 7.264 17.824 14.624l29.28 70.784c1.184 2.816 1.888 6.080 1.888 9.472 0 5.056-1.504 9.76-4.128 13.696l-19.936 30.432 37.248 36.928 29.984-20.224c3.84-2.528 8.544-4.064 13.6-4.064 3.424 0 6.688 0.704 9.664 1.952l70.464 29.408c7.52 3.168 13.024 9.728 14.752 17.696l7.488 35.648h52.256l4.288-20.544c2.208-11.648 12.288-20.32 24.416-20.32 13.696 0 24.832 11.104 24.832 24.832 0 1.984-0.224 3.936-0.672 5.792l-8.352 40.096c-2.4 11.296-12.256 19.68-24.064 19.808z" />
<glyph unicode="&#xe939;" glyph-name="logo-i01" d="M806.784 742.784c-15.392 15.36-36.608 24.864-60.064 24.864s-44.704-9.504-60.064-24.864l-100.544-100.544-265.12 67.904c-1.824 0.48-3.936 0.768-6.080 0.768-6.688 0-12.768-2.656-17.248-6.976l-69.184-69.312c-4.416-4.416-7.168-10.528-7.168-17.28 0-9.76 5.728-18.208 14.016-22.112l142.88-66.72c3.008-1.44 6.56-2.272 10.304-2.272 13.504 0 24.448 10.944 24.448 24.448 0 9.76-5.728 18.208-14.016 22.112l-111.104 52.064 34.496 34.496 265.376-67.776c1.824-0.48 3.936-0.768 6.080-0.768 6.688 0 12.768 2.656 17.248 6.976l110.4 110.4c6.432 6.144 15.2 9.92 24.832 9.92 19.872 0 36-16.128 36-36 0-9.632-3.776-18.368-9.952-24.832l-110.144-110.080c-4.448-4.416-7.168-10.56-7.168-17.312 0-13.504 10.944-24.48 24.48-24.48 6.752 0 12.864 2.72 17.28 7.136l110.048 110.272c15.296 15.36 24.736 36.544 24.736 59.936s-9.44 44.576-24.736 59.968zM727.712 439.36c-2.784 10.688-12.352 18.432-23.712 18.432-13.504 0-24.448-10.944-24.448-24.448 0-2.144 0.288-4.224 0.8-6.176l42.912-168.768-34.368-34.56-96.192 207.392c-3.968 8.448-12.416 14.176-22.176 14.176-6.752 0-12.864-2.72-17.28-7.168l-92.672-92.64c-4.448-4.416-7.168-10.528-7.168-17.28 0-1.696 0.16-3.36 0.512-4.96l19.456-97.216-31.456-31.456-54.24 116.992c-2.496 5.28-6.624 9.44-11.776 11.84l-117.184 54.368 31.456 31.456 97.312-19.552c1.472-0.32 3.136-0.48 4.864-0.48 6.752 0 12.864 2.752 17.28 7.2l89.12 89.12c4.416 4.416 7.168 10.528 7.168 17.28s-2.72 12.864-7.168 17.28c-4.48 4.352-10.592 7.040-17.312 7.040s-12.864-2.688-17.312-7.040l-79.872-79.808-97.312 19.552c-1.44 0.288-3.104 0.48-4.8 0.48-6.752 0-12.864-2.752-17.312-7.168l-65.472-65.536c-4.448-4.416-7.2-10.56-7.2-17.312 0-9.792 5.76-18.24 14.048-22.144l140.832-65.216 65.152-140.704c3.968-8.448 12.416-14.208 22.208-14.208 6.784 0 12.896 2.752 17.312 7.2l65.472 65.472c4.448 4.416 7.168 10.528 7.168 17.28 0 1.696-0.16 3.36-0.512 4.96l-19.456 97.216 58.592 58.592 96.064-207.392c3.968-8.448 12.416-14.176 22.176-14.176 6.752 0 12.864 2.72 17.28 7.168l69.184 69.504c4.32 4.448 6.976 10.528 6.976 17.248 0 2.176-0.288 4.256-0.8 6.272z" />
<glyph unicode="&#xe93a;" glyph-name="logo-i02" d="M455.2 505.344c-14.848-14.848-24.032-35.36-24.032-58.016s9.184-43.168 24.032-58.016v0c4.32-3.712 9.984-5.984 16.192-5.984 13.696 0 24.832 11.104 24.832 24.832 0 6.176-2.24 11.808-5.984 16.16-5.888 5.888-9.568 14.080-9.568 23.104 0 18.048 14.656 32.704 32.704 32.704s32.704-14.656 32.704-32.704c0-9.024-3.648-17.216-9.6-23.136-3.328-4.192-5.344-9.536-5.344-15.36 0-13.696 11.104-24.832 24.832-24.832 5.632 0 10.848 1.888 15.008 5.056 15.136 14.848 24.544 35.616 24.544 58.56 0 45.312-36.736 82.048-82.048 82.048-22.944 0-43.68-9.408-58.56-24.576zM738.528 673.824l-2.368 2.432c-4 2.848-8.96 4.544-14.336 4.544-13.696 0-24.832-11.104-24.832-24.832 0-6.272 2.336-12 6.176-16.384 48.832-48.832 79.072-116.352 79.072-190.944s-30.208-142.080-79.072-190.976c-4.416-4.48-7.168-10.624-7.168-17.44s2.72-12.96 7.168-17.44v0c4.48-4.416 10.656-7.168 17.44-7.168s12.96 2.72 17.44 7.168c57.728 57.792 93.44 137.6 93.44 225.76 0 87.904-35.52 167.52-92.96 225.248zM242.048 448.608c0 0.256 0 0.544 0 0.832 0 74.304 30.208 141.536 79.008 190.112 3.456 4.224 5.536 9.696 5.536 15.616 0 13.696-11.104 24.832-24.832 24.832-5.92 0-11.36-2.080-15.616-5.536-57.728-57.76-93.472-137.6-93.472-225.792s35.744-168.032 93.536-225.824l1.376-1.376c4.448-4.384 10.56-7.104 17.312-7.136v0c0.032 0 0.096 0 0.16 0 6.784 0 12.928 2.72 17.408 7.136 4.416 4.48 7.168 10.624 7.168 17.44s-2.72 12.96-7.168 17.44c-49.6 48.736-80.352 116.512-80.352 191.52 0 0.256 0 0.544 0 0.8zM650.592 596.928c-4.352 4.128-10.208 6.656-16.704 6.656-0.32 0-0.608 0-0.928-0.032-13.184-0.608-23.648-11.488-23.648-24.8 0-7.008 2.88-13.312 7.552-17.824 29.888-28.096 48.48-67.904 48.48-112.032 0-42.304-17.088-80.64-44.768-108.416-4.416-4.48-7.168-10.624-7.168-17.44s2.72-12.96 7.168-17.44v0c4.448-4.416 10.592-7.168 17.376-7.2v0c6.816 0.032 12.96 2.784 17.44 7.264 36.48 36.512 59.008 86.944 59.008 142.624 0 0.192 0 0.384 0 0.576-0.032 58.272-24.544 110.816-63.776 147.968zM405.696 340.128c-27.776 27.808-44.928 66.208-44.928 108.608 0 42.048 16.864 80.128 44.224 107.872 4.416 4.448 7.136 10.624 7.136 17.408s-2.72 12.96-7.168 17.44c-4.32 4.416-10.304 7.136-16.96 7.136-0.192 0-0.384 0-0.576 0-6.784-0.032-12.96-2.848-17.408-7.328-36.256-36.672-58.624-87.072-58.624-142.752 0-56.064 22.72-106.816 59.424-143.552l0.448-0.448c4.448-4.416 10.592-7.168 17.376-7.2v0c13.536 0.224 24.416 11.264 24.416 24.832 0 6.688-2.624 12.736-6.912 17.216z" />
<glyph unicode="&#xe93b;" glyph-name="logo-i03" d="M515.488 377.984c-36.672 0.032-66.4 29.792-66.4 66.464s29.76 66.464 66.464 66.464 66.464-29.76 66.464-66.464c-0.032-36.704-29.792-66.464-66.528-66.464zM515.488 464.576c-11.072 0-20.032-8.96-20.032-20.032s8.96-20.032 20.032-20.032c11.072 0 20.032 8.96 20.032 20.032-0.032 11.072-8.992 20-20.032 20.032zM470.496 314.56c-3.264 0-6.4 0.672-9.216 1.92-50.080 21.536-84.64 70.592-84.64 127.744 0 0.096 0 0.16 0 0.256 0 12.8 10.4 23.2 23.2 23.2s23.2-10.4 23.2-23.2c0-0.032 0-0.064 0-0.128 0-38.048 23.008-70.72 55.872-84.864 9.12-3.808 15.008-12.064 15.008-21.696 0-12.832-10.4-23.2-23.2-23.2-0.096 0-0.192 0-0.256 0zM571.648 320.096c-12.768 0.032-23.136 10.432-23.136 23.2 0 8.64 4.736 16.16 11.712 20.16 16.096 9.12 28.832 22.272 37.12 38.144 4.192 8.16 12.032 13.28 21.056 13.28 12.896 0 23.36-10.464 23.36-23.36 0-3.872-0.928-7.52-2.624-10.752-12.704-24.416-31.808-44.16-55.104-57.344-3.968-2.24-7.872-3.328-12.032-3.328-0.128 0-0.256 0-0.416 0zM624.32 460.544c-10.016 0-18.528 6.336-21.792 15.232-13.28 36.096-47.232 61.248-87.040 61.248-23.552 0-45.056-8.8-61.376-23.296-4-3.584-9.44-5.824-15.424-5.824-12.864 0-23.296 10.432-23.296 23.296 0 6.912 3.008 13.088 7.744 17.344 24.416 21.696 56.704 34.944 92.096 34.944 59.808 0 110.784-37.792 130.336-90.784 1.184-3.296 1.664-5.984 1.664-8.768 0-12.8-10.4-23.2-23.2-23.2zM512 242.752c-123.424 0-238.432 70.368-315.584 193.12-2.272 3.52-3.584 7.808-3.584 12.416s1.344 8.896 3.648 12.512c19.168 30.304 40.16 56.704 63.648 80.672 4.064 3.84 9.664 6.24 15.84 6.24 12.832 0 23.2-10.4 23.2-23.2 0-6.016-2.304-11.52-6.048-15.648-17.888-18.176-34.208-38.016-48.672-59.264 67.328-102.816 164.256-160.544 267.264-160.544 54.112 0.192 104.608 15.456 147.584 41.792 2.24 1.504 6.496 2.816 11.072 2.816 12.832 0 23.2-10.4 23.2-23.2 0-8.672-4.768-16.256-11.808-20.224-48.512-29.664-107.040-47.296-169.664-47.488zM745.472 346.080c0 0 0 0 0 0-12.832 0-23.2 10.4-23.2 23.2 0 6.4 2.592 12.192 6.784 16.384 18.56 18.72 35.392 39.2 50.24 61.12-67.296 102.848-164.256 160.544-267.264 160.544-55.008-0.224-106.272-15.968-149.696-43.072-2.080-1.184-6.016-2.304-10.208-2.304-12.832 0-23.2 10.4-23.2 23.2 0 8.192 4.224 15.392 10.656 19.52 49.152 30.688 108.672 48.896 172.448 49.088 123.488 0 238.496-70.368 315.616-193.12 2.272-3.52 3.584-7.808 3.584-12.416s-1.344-8.896-3.648-12.512c-19.648-31.232-41.344-58.432-65.632-82.976-4.128-4.096-9.888-6.656-16.256-6.656-0.064 0-0.096 0-0.16 0z" />
<glyph unicode="&#xe93c;" glyph-name="logo-i04" d="M754.4 747.424h-484.832c-42.816-0.064-77.504-34.752-77.568-77.568v-319.232c0.064-42.816 34.752-77.504 77.568-77.568h154.528v-42.144c0-0.672 0-1.376 0-2.048v0c-0.032-16.672-13.536-30.176-30.208-30.24h-4.224c-13.696 0-24.832-11.104-24.832-24.832s11.104-24.832 24.832-24.832h243.968c13.696 0 24.832 11.104 24.832 24.832s-11.104 24.832-24.832 24.832h-0.608c-16.672 0.032-30.176 13.536-30.24 30.208 0 13.728-11.104 24.832-24.832 24.832s-24.832-11.104-24.832-24.832c0.096-10.944 2.368-21.312 6.4-30.752l-91.808 0.512c3.84 8.928 6.112 19.296 6.208 30.208v0.032c0 0.672 0 1.376 0 2.048v42.144h280.64c42.816 0.064 77.504 34.752 77.568 77.568v319.2c-0.032 42.88-34.816 77.632-77.696 77.632-0.032 0-0.032 0-0.064 0zM782.336 350.24c-0.032-15.424-12.512-27.904-27.936-27.936h-484.832c-15.424 0.032-27.904 12.512-27.936 27.936v7.456h476.672c13.696 0 24.832 11.104 24.832 24.832s-11.104 24.832-24.832 24.832h-476.672v262.464c0.032 15.424 12.512 27.904 27.936 27.936h484.832c15.424-0.032 27.904-12.512 27.936-27.936zM614.4 571.936l-152.544 87.936c-3.552 2.080-7.84 3.328-12.416 3.328-13.696 0-24.8-11.104-24.832-24.8v-175.936c0-13.696 11.136-24.8 24.832-24.8 4.576 0 8.864 1.248 12.544 3.392l39.168 22.464c7.488 4.384 12.416 12.352 12.416 21.504 0 13.728-11.104 24.832-24.832 24.832-4.576 0-8.864-1.248-12.544-3.392l-1.92-1.12v90.048l78.080-44.992-1.792-1.056c-7.488-4.384-12.416-12.352-12.416-21.504 0-13.728 11.104-24.832 24.832-24.832 4.576 0 8.864 1.248 12.544 3.392l38.912 22.528c7.488 4.384 12.416 12.352 12.416 21.504s-4.928 17.12-12.288 21.44z" />
<glyph unicode="&#xe93d;" glyph-name="logo-i05" d="M830.24 605.632c0 0.032 0 0.032 0 0.064 0 13.056-10.080 23.744-22.88 24.736h-0.096c-15.968 1.216-30.72 5.024-44.288 11.072l0.864-0.352c-2.912 1.312-6.304 2.048-9.888 2.048-13.728 0-24.832-11.104-24.832-24.832 0-10.144 6.080-18.848 14.784-22.72l0.16-0.064c10.112-4.544 21.952-8.416 34.304-11.072l1.216-0.224c-5.216-73.792-39.712-319.872-267.68-406.24-110.912 41.952-189.664 125.248-234.144 247.552-17.28 46.624-29.216 100.608-33.408 156.768l-0.128 1.984c69.76 14.816 125.248 69.824 136.544 135.040h261.888c2.688-15.072 7.2-28.544 13.376-41.056l-0.384 0.896c4.096-8.384 12.576-14.048 22.368-14.048 13.728 0 24.832 11.104 24.832 24.832 0 3.904-0.896 7.616-2.528 10.912l0.064-0.16c-6.368 12.672-10.112 27.616-10.176 43.424v0.032c0 13.696-11.104 24.832-24.832 24.832v0h-306.944c-13.696 0-24.832-11.104-24.832-24.832v0c0-57.824-52.448-108.928-116.864-113.76-12.896-0.992-22.976-11.712-22.976-24.768 0-0.032 0-0.064 0-0.064v0c1.792-70.656 15.168-137.632 38.24-199.904l-1.376 4.288c49.664-138.208 143.616-235.456 271.2-281.376 2.496-0.928 5.376-1.472 8.384-1.504h3.552c3.008 0 5.888 0.544 8.544 1.536l-0.16-0.064c127.584 45.856 221.376 143.168 271.2 281.376 21.728 57.952 35.104 124.896 36.896 194.752l0.032 0.8zM449.12 522.912v-78.016c1.088-34.048 28.992-61.248 63.2-61.248s62.112 27.2 63.2 61.152v78.112c0.032 0.576 0.032 1.28 0.032 1.984 0 34.912-28.32 63.232-63.232 63.232s-63.232-28.32-63.232-63.232c0-0.704 0-1.376 0.032-2.080v0.096zM525.888 522.912v-78.016c-0.48-7.104-6.368-12.672-13.568-12.672s-13.056 5.568-13.568 12.64v78.048c-0.032 0.288-0.032 0.608-0.032 0.928 0 7.52 6.080 13.6 13.6 13.6s13.6-6.080 13.6-13.6c0-0.32 0-0.64-0.032-0.96v0.032zM670.624 381.792c13.696 0 24.832 11.104 24.832 24.832v0 154.656s0 0.448 0 0.608c0.032 0.416 0.032 0.896 0.032 1.376s0 0.96-0.032 1.44v-0.064c0 0.736 0 1.504-0.32 2.176-0.256 0.96-0.512 1.76-0.8 2.528l0.064-0.16c0 0.736-0.448 1.504-0.8 2.176s-0.736 1.44-1.12 2.112-0.736 1.44-1.248 2.048-0.928 1.184-1.44 1.728c-0.576 0.736-1.184 1.376-1.792 1.984v0l-0.448 0.48c-0.448 0.384-0.864 0.608-1.312 0.928-0.64 0.512-1.344 1.024-2.080 1.504l-0.096 0.064-2.048 1.12-2.24 1.056-2.368 0.736-2.304 0.544c-0.384 0.032-0.864 0.032-1.344 0.032s-0.928 0-1.408-0.032h-2.176c-0.384 0.032-0.864 0.032-1.344 0.032s-0.928 0-1.408-0.032h0.064l-2.24-0.32c-0.8 0-1.568-0.448-2.304-0.736s-1.568-0.48-2.24-0.8-1.376-0.736-2.048-1.12-1.44-0.8-2.112-1.248-1.184-0.928-1.728-1.44c-0.736-0.576-1.376-1.184-1.984-1.792v0l-0.48-0.448-35.072-38.976c-3.904-4.352-6.272-10.144-6.272-16.48 0-13.696 11.104-24.832 24.832-24.832 3.648 0 7.136 0.8 10.272 2.208l-0.16-0.064v-93.088c0.032-13.6 11.008-24.608 24.576-24.768v0zM381.856 381.792c13.696 0 24.832 11.104 24.832 24.832v0 154.656s0 0.448 0 0.608c0.032 0.416 0.032 0.896 0.032 1.376s0 0.96-0.032 1.44v-0.064c0 0.736 0 1.504-0.32 2.176-0.256 0.96-0.512 1.76-0.8 2.528l0.064-0.16c0 0.736-0.448 1.504-0.8 2.176s-0.736 1.44-1.12 2.112-0.736 1.44-1.248 2.048-0.928 1.184-1.44 1.728c-0.576 0.736-1.184 1.376-1.792 1.984v0l-0.448 0.48c-0.448 0.384-0.864 0.608-1.312 0.928-0.64 0.512-1.344 1.024-2.080 1.504l-0.096 0.064-2.048 1.12-2.304 1.12-2.368 0.736-2.304 0.544c-0.384 0.032-0.864 0.032-1.344 0.032s-0.928 0-1.408-0.032h-2.112c-0.384 0.032-0.864 0.032-1.344 0.032s-0.928 0-1.408-0.032h0.064l-2.24-0.32c-0.8 0-1.568-0.448-2.304-0.736s-1.568-0.48-2.24-0.8-1.376-0.736-2.048-1.12-1.44-0.8-2.112-1.248-1.184-0.928-1.728-1.44c-0.736-0.576-1.376-1.184-1.984-1.792v0l-0.48-0.448-35.072-38.976c-3.904-4.352-6.272-10.144-6.272-16.48 0-13.696 11.104-24.832 24.832-24.832 3.648 0 7.136 0.8 10.272 2.208l-0.16-0.064v-93.088c0 0 0 0 0 0 0-13.632 10.976-24.672 24.576-24.832v0z" />
<glyph unicode="&#xe93e;" glyph-name="logo-i06" d="M822.496 761.408c-4.416 4.16-10.4 6.688-16.96 6.688-1.76 0-3.456-0.192-5.088-0.512-22.688-4.64-227.904-50.304-397.696-220.096-90.56-90.176-135.84-170.848-134.624-240.48 0.032-20.992 5.28-40.704 14.528-58.016l-81.632-80.64c-4.32-4.32-7.008-10.272-7.008-16.864 0-13.152 10.656-23.84 23.84-23.84 6.56 0 12.512 2.656 16.832 6.944l294.24 294.368c4.288 4.288 6.976 10.24 6.976 16.832 0 13.152-10.656 23.776-23.776 23.776-6.56 0-12.512-2.656-16.832-6.976l-176.512-176.576c-1.856 6.496-2.944 13.984-3.040 21.728-0.672 38.528 19.744 105.568 120.384 206.272 126.304 126.304 273.632 179.968 338.592 198.592-6.592-25.568-18.176-66.4-38.176-125.536l-72.48-1.92c-13.376-0.416-24.096-11.36-24.096-24.8 0-2.912 0.512-5.728 1.44-8.32l27.328-77.216c-15.712-23.264-71.488-96-200.32-175.52-7.456-4.096-12.448-11.904-12.448-20.896 0-13.12 10.656-23.776 23.776-23.776 5.056 0 9.728 1.568 13.568 4.256 162.336 100.192 216.448 191.040 222.048 201.024 2.016 3.456 3.2 7.616 3.2 12.064 0 2.976-0.544 5.824-1.504 8.448l-20.48 57.856 56.608 1.312c10.56 0.256 19.456 7.072 22.784 16.512 40.704 118.592 51.456 173.312 53.184 183.072 0.32 1.472 0.48 3.136 0.48 4.864 0 6.752-2.688 12.864-7.072 17.344z" />
<glyph unicode="&#xe93f;" glyph-name="logo-i07" d="M329.408 142.24c0 0 0 0-0.032 0-13.696 0-24.832 11.104-24.832 24.832 0 2.72 0.448 5.344 1.248 7.808l63.744 197.184-49.664 36.384c-6.624 4.512-10.944 12.064-10.944 20.576 0 13.696 11.104 24.832 24.832 24.832 5.824 0 11.168-2.016 15.392-5.344l64.192-47.008c6.208-4.576 10.208-11.84 10.208-20.064 0-2.72-0.448-5.344-1.248-7.808l-45.888-142.016 121.024 87.616c4.032 2.944 9.088 4.704 14.56 4.704s10.528-1.76 14.624-4.768l120.96-87.584-45.92 142.176c-0.768 2.272-1.216 4.928-1.216 7.648 0 8.192 3.968 15.456 10.080 19.968l64.48 47.040c4.192 3.296 9.536 5.312 15.328 5.312 13.696 0 24.832-11.104 24.832-24.832 0-8.544-4.288-16.064-10.848-20.512l-49.728-36.416 63.808-197.344c0.768-2.272 1.184-4.896 1.184-7.616 0-13.696-11.104-24.832-24.832-24.832-5.472 0-10.528 1.76-14.624 4.768l-168.16 121.728-168-121.632c-4.032-2.976-9.088-4.768-14.592-4.768zM807.424 489.504v0l-225.408 0.32c-10.912 0.064-20.128 7.136-23.424 16.96l-46.592 142.176-46.56-141.984c-3.328-10.016-12.64-17.12-23.584-17.12l-225.408-0.32c-13.696 0-24.832 11.104-24.832 24.832s11.104 24.832 24.832 24.832l207.392 0.32 64.544 197.12c3.36 9.984 12.64 17.088 23.584 17.088s20.224-7.072 23.52-16.896l64.48-197.28 207.392-0.32c13.696 0 24.832-11.104 24.832-24.832s-11.104-24.832-24.832-24.832z" />
<glyph unicode="&#xe940;" glyph-name="logo-i08" d="M826.336 557.28l-133.12 156.768c-4.32 5.056-10.688 8.256-17.824 8.256-5.76 0-11.040-2.080-15.104-5.568l-65.696-55.84c-4.96-4.288-8.064-10.624-8.064-17.632 0-5.76 2.080-11.040 5.536-15.104l127.392-150.016v-0.928c-0.928-32.896-49.024-84.16-79.2-108.736l-175.456-148.96c-1.728-1.056-3.808-1.696-6.048-1.696-3.808 0-7.2 1.824-9.312 4.64-2.112 2.368-3.392 5.472-3.392 8.864 0 0.128 0 0.256 0 0.384 0.096 2.464 1.216 4.64 2.912 6.176l108.928 92.8c5.184 4.064 8.48 10.336 8.48 17.376 0 12.16-9.856 22.048-22.048 22.048-5.792 0-11.072-2.24-15.008-5.888l-139.488-118.336c-1.504-1.216-3.424-1.952-5.536-1.952-0.48 0-0.928 0.032-1.376 0.096-3.392 0.48-6.368 2.208-8.448 4.736-2.112 2.080-3.424 4.928-3.424 8.064 0 2.944 1.12 5.6 2.976 7.616l108.896 92.448c4.768 4.064 7.776 10.080 7.776 16.832 0 12.192-9.888 22.048-22.048 22.048-5.472 0-10.464-1.984-14.304-5.28l-125.472-106.592c-1.504-1.184-3.424-1.92-5.536-1.92-0.736 0-1.44 0.096-2.112 0.256-3.104 0.64-5.792 2.272-7.744 4.576-2.112 2.048-3.424 4.896-3.424 8.064 0 2.944 1.12 5.6 2.976 7.616l108.896 92.768c4.768 4.064 7.776 10.080 7.776 16.832 0 12.192-9.888 22.048-22.048 22.048-5.472 0-10.464-1.984-14.304-5.28l-92.192-78.528c-1.44-1.184-3.296-1.92-5.312-1.92-0.064 0-0.128 0-0.224 0h-1.28c-3.488 0.48-6.464 2.208-8.544 4.768-2.144 2.080-3.424 4.928-3.424 8.096 0 2.976 1.152 5.696 3.040 7.712l76.128 64.672c4.768 4.064 7.776 10.080 7.776 16.832 0 12.192-9.888 22.048-22.048 22.048-5.472 0-10.464-1.984-14.304-5.28l-76.192-64.704c-11.36-10.176-18.496-24.864-18.496-41.248 0-14.048 5.248-26.88 13.888-36.64 4.064-4.8 8.896-8.928 14.272-12.192l1.824-1.088-0.448-1.728c-1.12-4.224-1.76-9.088-1.76-14.080 0-31.68 25.536-57.408 57.152-57.728 1.568 0 3.328 0 5.376 0h1.792l0.672-1.664c2.496-6.304 5.76-11.744 9.824-16.544 9.12-10.784 22.144-18.144 36.896-19.936 2.272-0.288 4.576-0.448 6.88-0.448 7.872 0 15.328 1.728 22.016 4.832l1.664 0.8 1.056-1.92c1.984-3.36 4.064-6.272 6.4-8.96 10.4-12.352 25.952-20.256 43.36-20.352 0.128 0 0.256 0 0.384 0 12.896 0 24.672 4.704 33.76 12.48l174.368 148.096c16.192 13.152 96.736 81.984 95.648 146.144v0 0.48c-0.576 9.28-3.968 17.664-9.312 24.416l-114.88 135.776 33.888 28.736 119.648-141.056c4.064-4.768 10.080-7.776 16.832-7.776 12.192 0 22.048 9.888 22.048 22.048 0 5.472-1.984 10.464-5.28 14.304zM372.352 646.976l-85.952-135.232c-2.208-3.392-3.52-7.52-3.52-11.968 0-12.224 9.92-22.144 22.144-22.144 7.776 0 14.624 4 18.56 10.080l86.816 137.184 1.728-0.544c8.576-2.944 18.432-4.64 28.672-4.64 0.064 0 0.128 0 0.192 0 12.672 0.064 24.8 2.496 35.936 6.88l0.448 0.192 39.36-24.832 39.84-26.816-15.392-22.4-2.24-3.552-56.48 33.088-1.568 0.672c-2.784 1.344-6.016 2.112-9.44 2.112-7.872 0-14.752-4.064-18.72-10.208l-0.8-1.632c-6.56-10.816-17.12-18.656-29.6-21.472-3.36-0.768-6.816-1.184-10.4-1.184-2.56 0-5.056 0.224-7.488 0.608-0.256 0-0.896 0.032-1.504 0.032s-1.248-0.032-1.856-0.064c0.032 0 0 0-0.032 0-12.16 0-22.016-9.856-22.016-22.016 0-11.008 8.064-20.128 18.624-21.76 4.384-0.736 9.312-1.152 14.304-1.152 24.928 0 47.456 10.144 63.744 26.496l1.312 1.312 47.712-27.936c5.344-3.744 11.968-5.984 19.104-5.984 2.528 0 4.992 0.288 7.36 0.8 12.8 3.232 18.88 13.984 23.296 21.856 0.992 1.792 1.92 3.424 3.040 5.216l25.376 36.192c2.656 4.192 4.224 9.312 4.224 14.784 0 9.696-4.96 18.24-12.448 23.264l-53.6 36.064-49.664 31.456c-3.616 2.272-8 3.616-12.736 3.616-4.448 0-8.64-1.216-12.224-3.328-7.136-4.064-15.84-6.496-25.088-6.528-8.864 0-17.184 2.304-24.416 6.336l-0.352 0.288c-1.12 1.056-2.336 2.016-3.616 2.848l-71.712 45.728c-3.52 2.24-7.808 3.584-12.416 3.584-8.672-0.032-16.256-4.512-20.672-11.264l-112.32-173.504c-2.208-3.392-3.52-7.52-3.52-11.968 0-12.224 9.92-22.144 22.144-22.144 7.776 0 14.624 4 18.56 10.080l101.824 157.28z" />
<glyph unicode="&#xe941;" glyph-name="logo-igf" d="M832.544 614.496c-0.032 3.296-0.672 6.432-1.856 9.28l0.064 0.384c-0.992 3.232-2.528 6.016-4.512 8.416l-61.6 75.040c-4.576 5.632-11.52 9.184-19.264 9.184s-14.688-3.552-19.232-9.12l-62.112-75.072c-1.952-2.368-3.456-5.152-4.416-8.192l-0.064-0.16v-0.544c-1.12-2.688-1.792-5.824-1.792-9.12v-37.248l-25.184 4.96v32.224c0.032 0.448 0.032 0.96 0.032 1.472s0 1.024-0.032 1.536c0.256 1.28 0.416 2.816 0.448 4.384 0 45.376-52.864 79.584-123.072 79.648v0c-70.112 0-123.072-34.272-123.072-79.616 0-1.888 0.256-3.744 0.64-5.504l-0.032-34.944-21.344-3.904v37.248c0 0.384 0 0.736 0 1.184 0.032 0.384 0.032 0.832 0.032 1.28 0 5.952-2.112 11.424-5.6 15.712l-61.6 75.040c-4.576 5.632-11.52 9.184-19.264 9.184s-14.688-3.552-19.232-9.12l-61.92-75.392c-0.576-0.768-1.152-1.6-1.664-2.496-3.456-4.288-5.536-9.696-5.6-15.552v-410.4c0-0.384 0-0.736 0-1.184 0.096-1.888 0.384-3.648 0.864-5.312-0.032-0.192-0.032-0.64-0.032-0.992s0.384-0.8 0.512-1.248 0.448-1.12 0.672-1.664c0.48-1.056 0.96-1.92 1.472-2.784l0.672-1.088c1.696-2.432 3.776-4.48 6.112-6.144l1.248-0.8c0.736-0.48 1.6-0.928 2.528-1.376l1.696-0.672c0.768-0.288 1.76-0.608 2.752-0.832l1.6-0.416c1.376-0.288 2.912-0.448 4.544-0.448s3.168 0.16 4.672 0.48l1.28 0.288 1.536 0.384c79.392 24.832 162.848 35.072 288.224 35.072 121.76 0 175.872-6.624 289.504-35.488 1.856-0.512 4-0.8 6.208-0.8 11.552 0 21.28 7.904 24.032 18.624 0.48 1.92 0.736 3.936 0.736 6.016 0 0.704-0.032 1.376-0.096 2.048 0 0.48 0 1.024 0 1.6zM241.28 237.248v368.704l38.368 46.656 34.272-41.696c-5.984 1.856-13.12 3.424-20.448 4.352-1.568 0.192-2.656 0.256-3.744 0.256-13.824 0-25.024-11.2-25.024-25.024 0-12.736 9.504-23.232 21.792-24.8 18.752-2.304 27.872-9.184 29.792-11.936v-246.080c0-13.696 11.104-24.832 24.832-24.832s24.832 11.104 24.832 24.832v219.008l20.96 4.16v-211.68c0-13.696 11.104-24.832 24.832-24.832s24.832 11.104 24.832 24.832v302.784c0 0.736 0 1.504 0 2.176 3.424 10.784 30.464 27.552 72.928 27.552 45.504 0 73.28-19.296 73.28-29.792-0.032-0.448-0.032-0.96-0.032-1.472s0-1.024 0.032-1.536c-0.256-1.28-0.416-2.816-0.448-4.384v-295.36c0-13.696 11.104-24.832 24.832-24.832s24.832 11.104 24.832 24.832v212.128l25.184-4.96v-218.464c0-13.696 11.104-24.832 24.832-24.832s24.832 11.104 24.832 24.832v299.008l37.248 45.664 34.272-41.696c-5.984 1.856-13.12 3.424-20.48 4.352-1.568 0.192-2.656 0.256-3.744 0.256-13.824 0-25.024-11.2-25.024-25.024 0-12.736 9.504-23.232 21.792-24.8 18.752-2.304 27.936-9.184 29.792-12 0.096-1.888 0.384-3.68 0.832-5.376l-0.032-312.48c-97.632 23.328-156.96 29.344-270.72 29.344s-194.24-8.064-269.472-27.872zM509.632 436.96c0 0 0 0 0 0-33.216 0-60.128-26.912-60.128-60.128 0-0.064 0-0.128 0-0.192v-53.6c0-13.696 11.104-24.832 24.832-24.832s24.832 11.104 24.832 24.832v53.632c0 5.664 4.576 10.24 10.24 10.24s10.24-4.576 10.24-10.24v-53.632c0-13.696 11.104-24.832 24.832-24.832s24.832 11.104 24.832 24.832v53.632c0 0.064 0 0.128 0 0.192 0 33.024-26.656 59.84-59.616 60.128z" />
</font>
</defs>
</svg>
