<?xml version="1.0" standalone="no"?>
<!DOCTYPE svg PUBLIC "-//W3C//DTD SVG 1.1//EN" "http://www.w3.org/Graphics/SVG/1.1/DTD/svg11.dtd" >
<svg xmlns="http://www.w3.org/2000/svg">
<metadata>Generated by IcoMoon</metadata>
<defs>
<font id="guapicons" horiz-adv-x="1024">
<font-face units-per-em="1024" ascent="960" descent="-64" />
<missing-glyph horiz-adv-x="1024" />
<glyph unicode="&#x20;" horiz-adv-x="512" d="" />
<glyph unicode="&#xe900;" glyph-name="bars" d="M0 874.667c0-29.455 23.878-53.333 53.333-53.333h917.333c29.455 0 53.333 23.878 53.333 53.333s-23.878 53.333-53.333 53.333h-917.333c-29.455 0-53.333-23.878-53.333-53.333zM0 448c0-29.455 23.878-53.333 53.333-53.333h917.333c29.455 0 53.333 23.878 53.333 53.333s-23.878 53.333-53.333 53.333h-917.333c-29.455 0-53.333-23.878-53.333-53.333zM0 21.333c0-29.455 23.878-53.333 53.333-53.333h917.333c29.455 0 53.333 23.878 53.333 53.333s-23.878 53.333-53.333 53.333h-917.333c-29.455 0-53.333-23.878-53.333-53.333z" />
<glyph unicode="&#xe901;" glyph-name="cross" d="M176.379 859.046c-20.828 20.828-54.596 20.828-75.424 0s-20.828-54.597 0-75.424l340.954-340.955-340.196-340.196c-20.828-20.828-20.828-54.596 0-75.425s54.597-20.828 75.425 0l340.196 340.196 337.868-337.868c20.829-20.828 54.597-20.828 75.425 0s20.828 54.596 0 75.425l-337.868 337.868 338.626 338.626c20.828 20.828 20.828 54.597 0 75.425s-54.597 20.828-75.425 0l-338.626-338.626-340.955 340.954z" />
<glyph unicode="&#xe902;" glyph-name="arrow-marker-top" d="M512 960c14.918 0 28.406-6.125 38.086-15.999l0.384-0.38 436.575-436.576c20.829-20.828 20.829-54.596 0-75.424s-54.596-20.829-75.424 0l-346.288 346.287v-788.575c0-29.455-23.878-53.333-53.333-53.333s-53.333 23.878-53.333 53.333v787.818l-345.53-345.53c-20.828-20.829-54.597-20.829-75.425 0s-20.828 54.596 0 75.424l431.605 431.606c9.73 12.963 25.227 21.349 42.683 21.349z" />
<glyph unicode="&#xe903;" glyph-name="arrow-marker-top-right" d="M874.149 810.307c10.549-10.549 15.756-24.418 15.619-38.244l0.002-0.541v-617.41c0-29.456-23.878-53.333-53.333-53.333s-53.333 23.877-53.333 53.333v489.725l-557.606-557.607c-20.829-20.828-54.597-20.828-75.425 0s-20.828 54.596 0 75.425l557.071 557.071h-488.653c-29.455 0-53.333 23.877-53.333 53.333s23.878 53.333 53.333 53.333h610.382c16.046 2.286 32.934-2.742 45.277-15.085z" />
<glyph unicode="&#xe904;" glyph-name="arrow-marker-right" d="M1024.38 448.379c0-14.918-6.126-28.406-15.999-38.085l-0.381-0.385-436.575-436.575c-20.828-20.828-54.597-20.828-75.425 0s-20.828 54.597 0 75.425l346.288 346.287h-788.575c-29.455 0-53.333 23.878-53.333 53.333 0 29.456 23.878 53.333 53.333 53.333h787.817l-345.53 345.53c-20.828 20.828-20.828 54.597 0 75.425s54.597 20.828 75.425 0l431.605-431.605c12.963-9.729 21.349-25.227 21.349-42.683z" />
<glyph unicode="&#xe905;" glyph-name="arrow-marker-bottom-right" d="M874.15 86.229c-10.549-10.549-24.418-15.755-38.244-15.618l-0.541-0.003h-617.41c-29.455 0-53.333 23.878-53.333 53.333 0 29.456 23.878 53.333 53.333 53.333h489.725l-557.607 557.607c-20.828 20.828-20.828 54.596 0 75.425s54.597 20.828 75.425 0l557.071-557.071v488.652c0 29.456 23.878 53.333 53.333 53.333s53.333-23.877 53.333-53.333v-610.382c2.286-16.046-2.742-32.933-15.085-45.277z" />
<glyph unicode="&#xe906;" glyph-name="arrow-marker-bottom" d="M512.757-64c-14.918 0-28.406 6.126-38.085 15.999l-0.385 0.38-436.575 436.576c-20.828 20.828-20.828 54.596 0 75.424 20.828 20.829 54.597 20.829 75.425 0l346.287-346.287v788.575c0 29.455 23.878 53.333 53.333 53.333s53.333-23.878 53.333-53.333v-787.818l345.53 345.53c20.829 20.829 54.597 20.829 75.425 0 20.828-20.828 20.828-54.596 0-75.424l-431.605-431.605c-9.729-12.963-25.227-21.349-42.683-21.349z" />
<glyph unicode="&#xe907;" glyph-name="arrow-marker-bottom-left" d="M150.073 86.229c-10.548 10.549-15.755 24.418-15.618 38.244l-0.002 0.54v617.411c0 29.455 23.877 53.333 53.333 53.333 29.455 0 53.333-23.878 53.333-53.333v-489.725l557.606 557.607c20.828 20.828 54.597 20.828 75.425 0 20.828-20.829 20.828-54.597 0-75.425l-557.071-557.071h488.653c29.455 0 53.333-23.878 53.333-53.333s-23.878-53.333-53.333-53.333h-610.383c-16.046-2.287-32.933 2.741-45.277 15.085z" />
<glyph unicode="&#xe908;" glyph-name="arrow-marker-left" d="M0.379 447.621c0 14.918 6.125 28.406 15.999 38.086l0.38 0.384 436.575 436.575c20.828 20.828 54.596 20.828 75.425 0s20.828-54.597 0-75.425l-346.288-346.287h788.575c29.455 0 53.333-23.878 53.333-53.333s-23.878-53.333-53.333-53.333h-787.817l345.53-345.53c20.828-20.829 20.828-54.597 0-75.425-20.829-20.828-54.597-20.828-75.425 0l-431.605 431.605c-12.963 9.729-21.349 25.227-21.349 42.683z" />
<glyph unicode="&#xe909;" glyph-name="arrow-marker-top-left" d="M150.073 810.306c10.549 10.549 24.418 15.756 38.244 15.619l0.541 0.002h617.41c29.455 0 53.333-23.878 53.333-53.333s-23.878-53.333-53.333-53.333h-489.725l557.607-557.606c20.828-20.828 20.828-54.597 0-75.425s-54.597-20.828-75.425 0l-557.071 557.071v-488.653c0-29.455-23.878-53.333-53.333-53.333s-53.333 23.878-53.333 53.333v610.382c-2.286 16.046 2.742 32.934 15.085 45.277z" />
<glyph unicode="&#xe90a;" glyph-name="award" d="M271.36 741.788c13.465 0 24.381 10.916 24.381 24.381s10.916 24.381 24.381 24.381h386.926c13.465 0 24.381-10.916 24.381-24.381s10.916-24.381 24.381-24.381c13.465 0 24.381 10.916 24.381 24.381 0 40.396-32.747 73.143-73.143 73.143h-386.926c-40.396 0-73.143-32.747-73.143-73.143 0-13.465 10.916-24.381 24.381-24.381zM658.286 106.665h-292.571c-13.465 0-24.381-10.916-24.381-24.381s10.916-24.381 24.381-24.381h292.571c13.465 0 24.381 10.916 24.381 24.381s-10.916 24.381-24.381 24.381zM414.476 155.427c0-13.465 10.916-24.381 24.381-24.381h146.286c13.465 0 24.381 10.916 24.381 24.381s-10.916 24.381-24.381 24.381h-146.286c-13.465 0-24.381-10.916-24.381-24.381zM512 202.238c-13.465 0-24.381 10.916-24.381 24.381v88.015c0 0.022 0 0.048 0 0.073 0 6.504-4.548 11.946-10.637 13.319-67.383 15.133-238.293 71.21-233.173 266.257v40.716c0.048 0.31 0.076 0.668 0.076 1.033 0 3.588-2.672 6.551-6.135 7.009l-57.575 0.004c-0.001 0-0.003 0-0.004 0-3.905 0-7.070-3.166-7.070-7.070 0-0.086 0.002-0.171 0.005-0.256 1.805-37.943 17.255-71.976 41.512-97.581 3.579-4.166 5.798-9.719 5.798-15.79 0-13.465-10.916-24.381-24.381-24.381-6.071 0-11.623 2.219-15.891 5.89-34.35 36.187-55.57 85.187-55.8 139.142-0.004 0.277-0.006 0.549-0.006 0.821 0 13.153 5.208 25.089 13.673 33.86 8.796 8.726 20.93 14.127 34.325 14.127 0.099 0 0.198 0 0.297-0.001h73.128c26.93 0 48.762-21.831 48.762-48.762v-48.762c-5.12-162.377 141.166-207.482 204.069-219.429 21.82-5.158 37.806-24.47 37.806-47.515 0-0.438-0.006-0.875-0.017-1.311l0.001-99.41c0-13.465-10.916-24.381-24.381-24.381zM890.392 675.96c-8.857 9.031-21.187 14.629-34.824 14.629-0.1 0-0.2 0-0.3-0.001h-73.127c-26.93 0-48.762-21.831-48.762-48.762v-48.762c0.265-3.79 0.416-8.214 0.416-12.673 0-77.387-45.466-144.155-111.143-175.048-8.605-4.773-13.524-12.663-13.524-21.701 0-6.652 2.664-12.681 6.983-17.080l-0.004 0.004c4.397-4.324 10.432-6.993 17.090-6.993 4.185 0 8.123 1.054 11.565 2.912 82.566 38.633 138.827 121.142 138.827 216.791 0 5.28-0.171 10.521-0.509 15.716l0.037 40.009c0 3.905 3.166 7.070 7.070 7.070h57.539c0.001 0 0.003 0 0.004 0 3.905 0 7.070-3.166 7.070-7.070 0-0.086-0.002-0.171-0.005-0.256-1.805-37.943-17.255-71.976-41.512-97.581-3.579-4.166-5.798-9.719-5.798-15.79 0-13.465 10.916-24.381 24.381-24.381 6.071 0 11.623 2.219 15.891 5.89 34.35 36.187 55.57 85.187 55.8 139.142 0.002 0.212 0.003 0.409 0.003 0.606 0 12.902-5.011 24.634-13.193 33.356z" />
<glyph unicode="&#xe90b;" glyph-name="congratulation" d="M663.162 207.114c-10.253-1.738-17.963-10.553-17.963-21.169 0-2.188 0.328-4.3 0.937-6.289l9.469-36.419c0.269-0.946 0.424-2.032 0.424-3.155 0-6.598-5.349-11.947-11.947-11.947-2.425 0-4.68 0.722-6.564 1.963l-111.864 67.751c-4.731 2.889-10.455 4.599-16.579 4.599s-11.848-1.71-16.721-4.679l-112.254-66.723c-1.791-1.129-3.97-1.8-6.306-1.8-6.598 0-11.947 5.349-11.947 11.947 0 1.162 0.166 2.285 0.475 3.347l31.674 125.234c0.576 2.277 0.906 4.892 0.906 7.583 0 9.713-4.303 18.421-11.106 24.322l-100.489 87.318c-2.698 2.208-4.407 5.538-4.407 9.267 0 6.519 5.221 11.818 11.709 11.944l50.724 3.414c11.404 0.557 20.44 9.939 20.44 21.431 0 1.040-0.074 2.064-0.217 3.064l0.013-0.115c-1.137 10.88-10.259 19.288-21.346 19.288-0.382 0-0.761-0.010-1.138-0.030l-106.98-5.849c-16.911-1.062-30.225-15.038-30.225-32.123 0-9.628 4.228-18.268 10.928-24.166l137.788-119.985-43.398-173.105c-0.776-2.632-1.222-5.656-1.222-8.785 0-17.774 14.409-32.183 32.183-32.183 6.632 0 12.796 2.006 17.917 5.445l153.972 92.087 153.356-93.135c4.97-3.299 11.075-5.264 17.639-5.264 17.774 0 32.183 14.409 32.183 32.183 0 2.912-0.387 5.733-1.111 8.415l-22.866 90.228c-2.446 9.357-10.824 16.15-20.789 16.15-1.269 0-2.512-0.11-3.72-0.321zM653.653 285.377c3.718-3.176 8.582-5.109 13.897-5.109s10.179 1.933 13.927 5.134l124.557 107.008c6.319 5.892 10.259 14.266 10.259 23.56 0 16.665-12.666 30.371-28.897 32.017l-179.58 10.983-67.535 170.667c-4.8 11.951-16.291 20.236-29.718 20.236-0.009 0-0.019 0-0.028 0h0.001c-0.008 0-0.018 0-0.027 0-13.427 0-24.918-8.285-29.641-20.021l-61.76-152.839c-0.977-2.366-1.544-5.112-1.544-7.991 0-7.733 4.092-14.511 10.228-18.287l0.093-0.053c3.166-1.945 7-3.097 11.104-3.097 8.922 0 16.572 5.446 19.807 13.195l40.525 100.104c1.727 4.609 6.095 7.831 11.215 7.831s9.489-3.222 11.188-7.748l48.789-123.45c4.628-11.416 15.305-19.474 27.949-20.232l130.283-8.050c6.397-0.255 11.486-5.502 11.486-11.938 0-3.733-1.712-7.066-4.394-9.257l-81.941-70.478c-4.546-3.956-7.403-9.751-7.403-16.213s2.857-12.258 7.377-16.191zM512 691.808c13.465 0 24.381 10.916 24.381 24.381v73.143c0 13.465-10.916 24.381-24.381 24.381s-24.381-10.916-24.381-24.381v-73.143c0-13.465 10.916-24.381 24.381-24.381zM609.524 592.821c13.465 0 24.381 10.916 24.381 24.381v172.13c0 13.465-10.916 24.381-24.381 24.381s-24.381-10.916-24.381-24.381v-172.13c0-13.465 10.916-24.381 24.381-24.381zM707.048 498.223c13.465 0 24.381 10.916 24.381 24.381v266.728c0 13.465-10.916 24.381-24.381 24.381s-24.381-10.916-24.381-24.381v-266.728c0-13.465 10.916-24.381 24.381-24.381zM413.013 592.821c13.465 0 24.381 10.916 24.381 24.381v172.13c0 13.465-10.916 24.381-24.381 24.381s-24.381-10.916-24.381-24.381v-172.13c0-13.465 10.916-24.381 24.381-24.381zM315.49 498.223c13.465 0 24.381 10.916 24.381 24.381v266.728c0 13.465-10.916 24.381-24.381 24.381s-24.381-10.916-24.381-24.381v-266.728c0-13.465 10.916-24.381 24.381-24.381z" />
<glyph unicode="&#xe90c;" glyph-name="docs" d="M783.848 740.569l-131.901 93.135c-3.906 2.768-8.769 4.425-14.019 4.425-13.486 0-24.418-10.932-24.418-24.418 0-8.235 4.077-15.518 10.323-19.941l124.419-87.091c4.595-3.211 7.564-8.476 7.564-14.434 0-0.154-0.002-0.308-0.006-0.461v-568.054c0-9.695-7.859-17.554-17.554-17.554h-452.51c-9.695 0-17.554 7.859-17.554 17.554v648.046c0 9.695 7.859 17.554 17.554 17.554h233.082c9.695 0 17.554-7.859 17.554-17.554v-102.4c0-28.008 22.705-50.712 50.712-50.712h119.954c13.465 0 24.381 10.916 24.381 24.381s-10.916 24.381-24.381 24.381h-119.954c-1.077 0-1.95 0.873-1.95 1.95v119.954c0 26.93-21.831 48.762-48.762 48.762h-268.19c-26.93 0-48.762-21.831-48.762-48.762v-682.667c0-26.93 21.831-48.762 48.762-48.762h487.619c26.93 0 48.762 21.831 48.762 48.762v594.895c-0.303 16.092-8.356 30.242-20.573 38.908zM682.667 521.141h-341.333c-13.465 0-24.381-10.916-24.381-24.381s10.916-24.381 24.381-24.381h341.333c13.465 0 24.381 10.916 24.381 24.381s-10.916 24.381-24.381 24.381zM707.048 374.855c0 13.465-10.916 24.381-24.381 24.381h-341.333c-13.465 0-24.381-10.916-24.381-24.381s10.916-24.381 24.381-24.381h341.333c13.465 0 24.381 10.916 24.381 24.381zM341.333 277.331c-13.465 0-24.381-10.916-24.381-24.381s10.916-24.381 24.381-24.381h195.048c13.465 0 24.381 10.916 24.381 24.381s-10.916 24.381-24.381 24.381z" />
<glyph unicode="&#xe90d;" glyph-name="exhibition" d="M323.291 173.956l-83.87-73.143c-5.238-4.499-8.535-11.129-8.535-18.53 0-13.466 10.916-24.382 24.382-24.382 6.066 0 11.614 2.215 15.88 5.88l83.838 73.116c5.238 4.499 8.535 11.129 8.535 18.53 0 13.466-10.916 24.382-24.382 24.382-6.066 0-11.614-2.215-15.88-5.88zM487.619 277.331h-291.352c-14.083 0.136-25.464 11.517-25.6 25.587v363.289c0.136 14.083 11.517 25.464 25.587 25.6h218.223c13.465 0 24.381 10.916 24.381 24.381s-10.916 24.381-24.381 24.381h-218.21c-41.013-0.138-74.224-33.349-74.362-74.349v-363.29c0.138-41.013 33.349-74.224 74.349-74.362h291.366v-121.905c0-13.465 10.916-24.381 24.381-24.381s24.381 10.916 24.381 24.381v121.905c0 26.93-21.831 48.762-48.762 48.762zM698.027 173.956c-4.234 3.638-9.782 5.853-15.848 5.853-13.466 0-24.382-10.916-24.382-24.382 0-7.4 3.297-14.031 8.502-18.502l83.903-73.17c4.234-3.638 9.782-5.853 15.848-5.853 13.466 0 24.382 10.916 24.382 24.382 0 7.4-3.297 14.031-8.502 18.502zM827.733 740.569h-291.352v73.143c0 13.465-10.916 24.381-24.381 24.381s-24.381-10.916-24.381-24.381v-73.143c0-26.93 21.831-48.762 48.762-48.762h291.352c14.083-0.136 25.464-11.517 25.6-25.587v-363.289c-0.136-14.083-11.517-25.464-25.587-25.6h-216.272c-13.465 0-24.381-10.916-24.381-24.381s10.916-24.381 24.381-24.381h216.015c0 0 0 0 0 0 41.118 0 74.467 33.263 74.605 74.349v363.289c-0.138 41.013-33.349 74.224-74.349 74.362zM332.312 462.383c8.311 3.487 14.043 11.558 14.043 20.967 0 12.523-10.152 22.674-22.674 22.674-4.897 0-9.431-1.552-13.137-4.191-35.283-19.214-80.875-48.715-70.635-85.042 8.29-29.257 46.324-35.352 81.676-35.352 8.046 0 15.848 0 24.381 0 14.629 0 30.964 2.682 48.762 5.12 27.974-29.555 67.481-47.948 111.283-47.948 73.832 0 135.459 52.258 149.909 121.804 64.538 29.275 125.247 67.553 113.788 107.294-3.657 12.434-14.629 48.762-152.625 29.501-27.963 29.459-67.406 47.786-111.129 47.786-84.562 0-153.112-68.551-153.112-153.112 0-23.073 5.104-44.955 14.244-64.576-12.013-1.145-25.386-2.339-39.038-2.339s-27.026 1.194-40.021 3.482c13.567 13.231 27.722 24.589 43.449 33.495zM502.979 389.24c-16.917 0.086-32.849 4.222-46.901 11.487 22.764 4.605 45.438 9.969 68.844 16.795 11.947 3.413 37.059 10.971 66.804 21.455-18.21-30.204-50.573-50.26-87.672-50.955zM719.97 556.006c-18.515-16.989-40.037-31.088-63.611-41.358-3.667 15.487-8.030 30.037-14.312 43.512 10.069 0.535 21.236 1.375 32.599 1.375 16.307 0 32.21-1.729 47.537-5.013zM399.116 492.615c0 57.833 46.883 104.716 104.716 104.716s104.716-46.883 104.716-104.716v0c-24.213-10.177-55.812-21.227-88.096-30.674-32.131-9.504-64.959-17.449-98.378-23.715-16.445 14.666-22.684 33.772-22.957 54.318z" />
<glyph unicode="&#xe90e;" glyph-name="live" d="M428.13 543.328c0-20.198-16.374-36.571-36.571-36.571s-36.571 16.374-36.571 36.571c0 20.198 16.374 36.571 36.571 36.571s36.571-16.374 36.571-36.571zM672.67 543.328c0-20.198-16.374-36.571-36.571-36.571s-36.571 16.374-36.571 36.571c0 20.198 16.374 36.571 36.571 36.571s36.571-16.374 36.571-36.571zM308.663 407.038c-9.407-3.523-15.982-12.438-15.982-22.889 0-3.353 0.677-6.547 1.901-9.455 33.342-86.88 112.58-136.617 217.418-136.617s184.32 50.225 217.722 137.509c1.005 2.569 1.588 5.544 1.588 8.655 0 13.467-10.917 24.384-24.384 24.384-10.356 0-19.204-6.456-22.739-15.562-35.165-91.351-123.424-105.736-172.186-105.736s-136.533 14.385-170.667 105.57c-3.474 9.502-12.436 16.161-22.953 16.161-3.514 0-6.854-0.743-9.873-2.082zM830.903 672.79c-4.505 5.471-11.279 8.932-18.862 8.932-13.465 0-24.381-10.916-24.381-24.381 0-4.651 1.302-8.998 3.563-12.696 38.934-54.629 62.283-122.862 62.283-196.549 0-188.513-152.82-341.333-341.333-341.333s-341.333 152.82-341.333 341.333c0 188.513 152.82 341.333 341.333 341.333 66.16 0 127.924-18.823 180.228-51.406 2.762-2.711 8.245-4.868 14.231-4.868 13.465 0 24.381 10.916 24.381 24.381 0 10.335-6.431 19.169-15.51 22.717-58.253 36.273-128.781 57.746-204.324 57.746-215.444 0-390.095-174.652-390.095-390.095s174.652-390.095 390.095-390.095c215.444 0 390.095 174.652 390.095 390.095 0 84.272-26.722 162.303-72.156 226.081z" />
<glyph unicode="&#xe90f;" glyph-name="meeting" d="M555.398 397.286c-15.711 6.339-29.191 13.538-41.776 21.97-7.945 6.604-13.497 17.379-13.497 29.449 0 2.509 0.24 4.962 0.698 7.337 5.569 5.853 10.689 10.486 15.321 14.874 24.381 24.381 39.010 39.497 48.762 119.954 1.606 8.406 2.525 18.075 2.525 27.958 0 37.849-13.476 72.55-35.891 99.568-27.923 28.248-66.831 46.058-109.901 46.553l-7.164 0.001c-42.99-0.605-81.71-18.395-109.696-46.793-22.226-26.779-35.702-61.481-35.702-99.329 0-9.883 0.919-19.552 2.676-28.925 8.87-79.734 22.524-96.557 48.611-118.987 4.632-4.145 9.752-9.021 15.36-15.116 0.419-2.133 0.659-4.586 0.659-7.095 0-12.071-5.552-22.845-14.241-29.908-11.842-7.983-25.323-15.183-39.53-20.97-63.185-27.604-162.172-71.733-162.172-184.129 0-13.465 10.916-24.381 24.381-24.381s24.381 10.916 24.381 24.381c0 79.97 73.143 112.884 130.682 139.215 20.107 7.881 37.475 17.56 53.297 29.216 18.601 15.588 30.753 39.557 30.753 66.363 0 9.946-1.673 19.5-4.752 28.399l-1.279 3.535-2.926 3.413c-7.167 8.192-14.491 15.672-22.214 22.723-17.527 16.287-24.598 24.576-32.887 89.917-1.25 6.236-1.965 13.405-1.965 20.741 0 25.758 8.818 49.457 23.6 68.243 18.772 18.218 44.429 29.868 72.8 30.723l8.209 0.004c28.534-0.859 54.191-12.51 73.167-30.987 14.104-18.342 22.618-41.664 22.618-66.975 0-7.697-0.787-15.21-2.286-22.463-7.191-65.602-15.237-72.428-32.547-89.007-7.939-7.247-15.264-14.726-22.154-22.596l-3.202-3.736-1.463-4.145c-2.896-8.288-4.569-17.843-4.569-27.789 0-26.807 12.152-50.775 31.248-66.696 15.395-11.339 32.846-21.021 51.483-28.342 59.102-26.628 130.538-59.055 132.245-137.318-6.095-6.339-46.080-36.571-243.81-36.571h-8.777c-3.077-0.028-6.715-0.044-10.356-0.044-47.891 0-95.138 2.762-141.588 8.134 4.798-0.425 3.802-0.363 2.792-0.363-12.408 0-22.651-9.268-24.183-21.259-0.12-0.982-0.182-1.978-0.182-2.988 0-12.408 9.268-22.651 21.259-24.183 42.323-5.014 91.205-7.867 140.753-7.867 4.045 0 8.087 0.019 12.123 0.057l7.184-0.005c157.013 0 251.855 18.286 282.331 54.613 6.805 7.463 10.973 17.433 10.973 28.377 0 0.138-0.001 0.276-0.002 0.413-1.219 111.644-100.693 156.017-160.183 182.836zM798.964 378.756c-9.408 3.804-17.429 7.975-24.992 12.799-3.122 2.563-5.498 7.073-5.498 12.138 0 0.233 0.005 0.465 0.015 0.696l7.557 7.038c18.773 17.31 27.55 30.476 33.402 82.164 0.96 5.415 1.509 11.648 1.509 18.010 0 26.878-9.796 51.468-26.012 70.395-19.296 19.912-46.37 32.457-76.376 32.767h-4.934c-30.116-0.442-57.227-12.952-76.782-32.896-16.111-18.798-25.907-43.389-25.907-70.267 0-6.362 0.549-12.596 1.602-18.656 5.759-51.041 14.536-64.207 33.309-81.518 4.081-3.637 7.822-7.378 11.34-11.323 4.625-5.634 11.416-9.115 19.019-9.115 13.465 0 24.381 10.916 24.381 24.381 0 6.39-2.458 12.206-6.481 16.553-4.803 5.472-9.739 10.485-14.946 15.205-9.908 9.16-13.809 12.817-18.197 52.070-0.709 3.538-1.115 7.606-1.115 11.768 0 13.914 4.535 26.768 12.207 37.166 10.392 9.985 24.578 16.4 40.257 16.893l5.215 0.002c15.774-0.495 29.959-6.91 40.49-17.083 7.534-10.209 12.069-23.064 12.069-36.977 0-4.162-0.406-8.23-1.18-12.165-4.323-38.856-8.224-42.513-17.977-51.534-5.355-4.865-10.291-9.878-14.937-15.152l-3.105-3.621-1.463-4.145c-2.178-6.187-3.436-13.321-3.436-20.749 0-19.837 8.974-37.578 23.084-49.386 10.437-7.788 22.257-14.431 34.892-19.462 41.765-18.898 76.142-37.427 79.312-75.462-23.742-10.484-51.429-16.588-80.541-16.588-0.656 0-1.312 0.003-1.967 0.009-13.001-0.474-23.443-11.208-23.443-24.382 0-13.473 10.922-24.396 24.396-24.396 0.3 0 0.599 0.005 0.896 0.016l1.664-0.001c65.829 4.632 103.863 16.579 119.954 37.059 5.013 5.996 8.057 13.788 8.057 22.291 0 0.306-0.004 0.612-0.012 0.916 1.22 76.024-65.584 106.5-105.325 124.542z" />
<glyph unicode="&#xe910;" glyph-name="atom" d="M744.838 444.585c82.164 78.994 129.707 160.427 96.061 213.090-11.459 18.042-36.571 37.79-90.941 36.571-13.050-0.538-23.425-11.248-23.425-24.381 0-13.476 10.924-24.4 24.4-24.4 0.343 0 0.684 0.007 1.024 0.021 24.332-0.002 41.887-4.39 48.713-13.899 14.141-22.187-16.823-82.408-89.966-152.869-16.823 15.36-35.109 30.72-54.126 45.592-3.958 69.251-16.243 134.145-35.913 195.741-33.573 96.587-77.702 118.042-108.666 118.042v0c-56.564 0-97.524-67.535-121.905-162.377-91.916 33.402-170.667 37.79-202.118-8.777-11.947-17.798-20.236-48.762 2.438-97.524 4.020-8.266 12.354-13.862 21.995-13.862 4.566 0 8.84 1.255 12.493 3.44l-0.111-0.062c7.171 4.332 11.891 12.084 11.891 20.939 0 3.821-0.879 7.438-2.446 10.657-10.176 22.286-12.371 40.084-6.032 48.617s42.423 20.48 110.202 1.463c13.166-3.657 27.063-8.533 40.96-13.653-5.252-28.102-9.584-62.639-12.023-97.697-132.8-100.52-230.323-222.425-185.706-291.423 17.604-22.591 44.816-36.984 75.389-36.984 3.934 0 7.813 0.238 11.622 0.701 43.765 1.687 85.422 10.48 124.136 25.236 1.212-16.26 5.113-31.132 9.745-45.030 34.377-102.4 78.507-123.855 109.47-123.855v0c21.455 0 51.444 10.484 79.726 57.295 2.090 3.521 3.325 7.762 3.325 12.292 0 9.715-5.683 18.104-13.906 22.022l-0.147 0.063c-3.045 1.47-6.622 2.329-10.4 2.329-8.933 0-16.743-4.804-20.989-11.969-13.228-21.324-26.15-33.271-37.609-33.271v0c-15.116 0-40.716 24.381-63.147 90.453-4.876 14.385-9.021 29.989-12.922 46.324 24.381 9.996 48.762 21.455 73.143 34.377 46.258-27.217 99.734-50.907 155.98-68.287 30.016-9.162 58.36-13.926 87.715-14.602 3.625-0.426 7.403-0.665 11.237-0.665 28.622 0 54.13 13.329 70.656 34.119 17.452 25.785 24.523 73.328-40.818 160.124-15.975 20.575-32.018 38.86-49.073 56.144zM365.714 462.87c0-5.12 0-9.996 0-15.116s0-7.314 0-10.728l-15.116 13.166zM224.305 264.409c-14.141 22.187 16.823 82.408 90.21 153.112q24.381-22.918 53.882-45.349c2.533-36.921 6.691-70.376 12.548-103.243-84.715-24.269-143.717-25-156.639-4.52zM603.185 562.832l-9.021 7.070-29.989 19.505c11.215 5.364 22.187 10.484 33.158 15.116q3.413-20.724 5.851-41.691zM512 789.331v0c15.116 0 40.716-24.381 63.147-90.453 4.876-14.385 9.021-29.745 12.922-46.080-24.381-9.996-48.762-21.699-73.143-34.621-25.844 14.385-51.688 27.794-77.288 39.010 19.992 83.383 49.981 132.145 74.362 132.145zM427.398 608.181c12.19-5.608 24.381-11.703 36.815-18.042-10.24-6.095-20.48-12.19-30.72-18.773l-12.678-8.29c1.707 15.848 3.901 31.208 6.339 45.105zM427.398 291.228q-3.17 19.992-5.608 41.204l9.021-6.339 29.989-19.749q-18.042-7.314-34.377-14.141zM598.065 287.084c-12.19 5.608-24.381 11.703-36.815 18.042 10.24 6.095 20.724 12.19 30.72 18.53l12.434 8.29c-3.17-14.385-5.12-30.232-7.558-44.13zM609.28 394.36c-13.897-9.752-28.282-19.749-43.642-29.501s-36.571-22.43-54.126-32.183c-17.798 10.484-35.352 21.699-53.15 33.646s-28.038 19.505-41.448 29.745c-2.438 17.798-2.438 34.621-2.438 51.931s0 35.596 1.463 52.663c13.897 9.752 28.282 19.749 43.642 29.501s36.084 21.943 54.126 32.183c17.554-10.484 35.352-21.699 52.907-33.646s28.038-19.749 41.448-29.745c0-16.823 1.463-33.646 1.463-50.956s0-35.352-1.463-52.663zM658.286 458.969l15.36-13.166-15.36-12.678c0 5.12 0 9.996 0 15.116s0 7.070 0 10.728zM794.575 256.364c-8.533-12.678-42.423-20.48-110.202-1.463-13.166 3.657-26.819 8.533-40.716 13.653 5.12 29.989 9.509 68.023 11.947 100.693 18.53 13.897 36.571 28.038 53.394 42.423 16.324-16.17 31.642-33.265 45.905-51.236 42.842-57.016 48.206-91.393 39.672-104.071z" />
<glyph unicode="&#xe911;" glyph-name="sport" d="M865.28 613.788c-3.902 8.577-12.397 14.432-22.259 14.432-13.465 0-24.381-10.916-24.381-24.381 0-3.924 0.927-7.631 2.574-10.915 16.486-34.385 27.554-74.575 30.828-116.948-91.35-6.204-173.479-42.312-236.791-99.006l-69.606 71.028 224.305 224.305c8.758 8.813 14.171 20.959 14.171 34.369 0 0.603-0.011 1.204-0.033 1.802-0.436 14.296-7.037 27.054-17.237 35.695-68.19 59.573-157.925 95.867-256.137 95.867-215.444 0-390.095-174.652-390.095-390.095 0-59.919 13.509-116.682 37.648-167.411 2.604-6.864 11.427-13.276 21.748-13.276 13.465 0 24.381 10.916 24.381 24.381 0 4.305-1.116 8.349-3.074 11.86-15.132 32.108-25.613 69.554-29.334 108.968 92.931 5.961 176.562 42.816 240.618 100.875l65.747-67.338-224.305-224.305c-8.758-8.813-14.171-20.959-14.171-34.369 0-0.603 0.011-1.204 0.033-1.802 0.596-14.261 7.154-26.967 17.245-35.7 68.132-59.391 157.736-95.568 255.791-95.568 215.444 0 390.095 174.652 390.095 390.095 0 60.847-13.931 118.44-38.778 169.764zM170.667 463.602c7.696 175.199 147.114 315.464 321.245 324.476-0.031-22.472-2.917-43.814-7.666-64.444-12.882-53.514-38.335-102.104-73.073-142.477l-72.766 73.591c-3.283 1.756-7.182 2.788-11.321 2.788-13.465 0-24.381-10.916-24.381-24.381 0-4.139 1.032-8.038 2.852-11.453l73.079-73.011c-55.359-49.442-127.628-80.997-207.156-85.056zM445.196 546.985c40.689 46.179 70.754 102.704 85.77 165.090 5.753 24.214 9.251 49.31 10.268 75.043 74.604-5.665 141.253-35.301 193.79-80.799l-223.024-224.676zM512 414.352l69.73-69.73c-56.306-62.805-92.403-144.756-97.478-234.998-75.827 4.865-143.676 34.78-196.976 81.023zM753.371 206.627c-56.85-56.178-133.471-92.459-218.5-97.48 4.007 77.87 34.655 147.803 82.533 202.205l67.944-68.641c4.165-7.824 12.267-13.060 21.593-13.060 13.465 0 24.381 10.916 24.381 24.381 0 9.326-5.236 17.429-12.928 21.529l-68.398 68.331c54.477 47.56 124.978 78.014 202.453 82.368-4.96-86.273-42.058-162.944-99.061-219.616z" />
<glyph unicode="&#xe912;" glyph-name="update" d="M861.379 797.377c-41.691 41.691-132.389-1.707-218.21-60.952-38.39 17.81-83.327 28.199-130.691 28.199-175.048 0-316.952-141.904-316.952-316.952 0-47.234 10.332-92.054 28.859-132.325-58.108-81.413-103.944-174.304-61.765-217.458 10.622-10.017 24.98-16.173 40.776-16.173 1.094 0 2.181 0.030 3.26 0.088 47.149-0.006 112.733 35.59 173.929 77.281 38.54-17.968 83.669-28.451 131.248-28.451 175.048 0 316.952 141.904 316.952 316.952 0 47.708-10.541 92.954-29.42 133.536 57.623 80.698 102.728 174.321 62.012 216.256zM197.242 133.24c-7.314 7.558 0 51.931 53.15 136.29 22.634-32.741 50.155-60.262 81.835-82.201-79.153-52.382-126.209-63.11-134.986-54.089zM780.19 447.998c-0.116-148.030-120.144-267.987-268.19-267.987-30.263 0-59.354 5.012-86.491 14.252 26.27 17.24 46.993 34.55 65.279 49.91l16.335-16.335c2.639-2.601 6.265-4.206 10.265-4.206 6.713 0 12.37 4.522 14.091 10.686l26.112 97.627c0.29 1.088 0.457 2.338 0.457 3.626 0 8.079-6.549 14.629-14.629 14.629-1.288 0-2.538-0.167-3.728-0.479l-97.422-26.065c-6.267-1.745-10.789-7.403-10.789-14.116 0-4.001 1.606-7.626 4.208-10.267l20.478-20.478c-28.526-24.381-55.101-44.861-79.238-62.171-40.634 23.932-73.592 56.891-96.837 96.266 20.037 30.027 45.393 62.21 76.357 98.781 4.008 4.331 6.466 10.147 6.466 16.537 0 13.465-10.916 24.381-24.381 24.381-7.604 0-14.395-3.481-18.866-8.936-17.345-20.279-40.019-47.342-63.425-77.818-8.504 25.002-13.412 53.803-13.412 83.75 0 148.118 120.073 268.19 268.19 268.19 30.083 0 59.009-4.953 86.007-14.088-38.217-26.995-71.375-55.277-97.463-77.952l-20.968 20.968c-2.639 2.601-6.265 4.206-10.265 4.206-6.713 0-12.37-4.522-14.091-10.686l-26.112-97.627c-0.29-1.088-0.457-2.338-0.457-3.626 0-8.079 6.549-14.629 14.629-14.629 1.288 0 2.538 0.167 3.728 0.479l97.422 26.065c6.267 1.745 10.789 7.403 10.789 14.116 0 4.001-1.606 7.626-4.208 10.267l-13.652 14.139c40.472 35.596 78.019 65.585 111.665 89.966 40.148-24.072 72.691-57.005 95.614-96.244-22.228-33.219-50.509-68.815-85.374-108.556-3.359-4.144-5.393-9.481-5.393-15.294 0-13.465 10.916-24.381 24.381-24.381 6.905 0 13.14 2.871 17.576 7.484 16.83 19.025 44.137 51.208 73.15 88.755 7.746-23.851 12.212-51.295 12.212-79.782 0-1.18-0.008-2.359-0.023-3.535zM773.364 626.954c-22.533 32.521-49.886 59.874-81.354 81.715 74.283 49.454 124.020 64.814 134.748 54.086s-1.95-55.345-53.394-135.802z" />
<glyph unicode="&#xe913;" glyph-name="warning" d="M881.615 216.379l-306.225 535.65c-12.843 22.182-36.463 36.865-63.512 36.865s-50.67-14.683-63.325-36.514l-306.169-536c-6.161-10.491-9.8-23.107-9.8-36.572 0-40.396 32.747-73.143 73.143-73.143 0.102 0 0.205 0 0.307 0.001h236.967c13.465 0 24.381 10.916 24.381 24.381s-10.916 24.381-24.381 24.381h-236.983c-0.029 0-0.063 0-0.097 0-13.465 0-24.381 10.916-24.381 24.381 0 4.488 1.213 8.694 3.329 12.306l305.919 536.266c4.271 7.434 12.166 12.36 21.211 12.36s16.94-4.926 21.149-12.242l306.044-536.499c2.054-3.497 3.267-7.702 3.267-12.191 0-13.465-10.916-24.381-24.381-24.381-0.034 0-0.068 0-0.102 0h-232.833c-13.465 0-24.381-10.916-24.381-24.381s10.916-24.381 24.381-24.381h232.838c40.356 0.053 73.050 32.78 73.050 73.143 0 13.366-3.585 25.895-9.847 36.678zM512 569.903c13.465 0 24.381-10.916 24.381-24.381v-180.907c0-13.465-10.916-24.381-24.381-24.381s-24.381 10.916-24.381 24.381v180.907c0 13.465 10.916 24.381 24.381 24.381zM548.571 251c0-20.198-16.374-36.571-36.571-36.571s-36.571 16.374-36.571 36.571c0 20.198 16.374 36.571 36.571 36.571s36.571-16.374 36.571-36.571z" />
<glyph unicode="&#xe914;" glyph-name="science" d="M170.667 447.998c0-13.465-10.916-24.381-24.381-24.381s-24.381 10.916-24.381 24.381c0 13.465 10.916 24.381 24.381 24.381s24.381-10.916 24.381-24.381zM536.381 447.998c0-13.465-10.916-24.381-24.381-24.381s-24.381 10.916-24.381 24.381c0 13.465 10.916 24.381 24.381 24.381s24.381-10.916 24.381-24.381zM243.81 343.16v209.676c0 13.465-10.916 24.381-24.381 24.381s-24.381-10.916-24.381-24.381v-209.676c0-13.465 10.916-24.381 24.381-24.381s24.381 10.916 24.381 24.381zM390.095 552.836v-209.676c0-13.465 10.916-24.381 24.381-24.381s24.381 10.916 24.381 24.381v209.676c0 13.465-10.916 24.381-24.381 24.381s-24.381-10.916-24.381-24.381zM292.571 655.236v-414.476c0-13.465 10.916-24.381 24.381-24.381s24.381 10.916 24.381 24.381v414.476c0 13.465-10.916 24.381-24.381 24.381s-24.381-10.916-24.381-24.381zM902.095 447.998c0-13.465-10.916-24.381-24.381-24.381s-24.381 10.916-24.381 24.381c0 13.465 10.916 24.381 24.381 24.381s24.381-10.916 24.381-24.381zM585.143 552.836v-209.676c0-13.465 10.916-24.381 24.381-24.381s24.381 10.916 24.381 24.381v209.676c0 13.465-10.916 24.381-24.381 24.381s-24.381-10.916-24.381-24.381zM804.571 577.217c-13.465 0-24.381-10.916-24.381-24.381v-209.676c0-13.465 10.916-24.381 24.381-24.381s24.381 10.916 24.381 24.381v209.676c0 13.465-10.916 24.381-24.381 24.381zM682.667 655.236v-414.476c0-13.465 10.916-24.381 24.381-24.381s24.381 10.916 24.381 24.381v414.476c0 13.465-10.916 24.381-24.381 24.381s-24.381-10.916-24.381-24.381z" />
<glyph unicode="&#xe915;" glyph-name="user" d="M796.77 678.642c-6.25-4.473-10.274-11.709-10.274-19.886 0-5.245 1.656-10.103 4.474-14.080 38.944-54.66 62.293-122.893 62.293-196.58 0-188.513-152.82-341.333-341.333-341.333s-341.333 152.82-341.333 341.333c0 188.513 152.82 341.333 341.333 341.333 66.16 0 127.924-18.823 180.228-51.406 2.762-2.711 8.245-4.868 14.231-4.868 13.465 0 24.381 10.916 24.381 24.381 0 10.335-6.431 19.169-15.51 22.717-58.253 36.273-128.781 57.746-204.324 57.746-215.444 0-390.095-174.652-390.095-390.095s174.652-390.095 390.095-390.095c215.444 0 390.095 174.652 390.095 390.095 0 84.272-26.722 162.303-72.156 226.081-3.684 4.799-10.771 8.636-18.755 8.636-4.967 0-9.588-1.485-13.441-4.036zM658.286 549.667c0 80.791-65.494 146.286-146.286 146.286s-146.286-65.494-146.286-146.286c0-80.791 65.494-146.286 146.286-146.286s146.286 65.494 146.286 146.286zM414.476 549.667c0 53.861 43.663 97.524 97.524 97.524s97.524-43.663 97.524-97.524c0-53.861-43.663-97.524-97.524-97.524s-97.524 43.663-97.524 97.524zM301.592 272.211c4.169-7.81 12.264-13.035 21.58-13.035 4.145 0 8.048 1.034 11.465 2.859 49.212 26.058 107.731 41.394 169.833 41.394 67.646 0 131.042-18.196 185.56-49.961 2.212-1.969 7.193-3.718 12.583-3.718 13.465 0 24.381 10.916 24.381 24.381 0 9.827-5.813 18.295-14.189 22.155-59.97 35.083-131.869 55.762-208.599 55.762-70.482 0-136.888-17.449-195.135-48.263-5.271-3.147-10.283-11.101-10.283-20.225 0-4.151 1.037-8.059 2.867-11.48z" />
<glyph unicode="&#xe916;" glyph-name="search" d="M390.095 301.712c0.026 0 0.058 0 0.089 0 148.118 0 268.19 120.073 268.19 268.19 0 73.96-29.938 140.927-78.356 189.444-9.766 9.769-20.272 18.806-31.423 27.016-44.381 32.526-99.131 51.73-158.366 51.73-148.118 0-268.19-120.073-268.19-268.19 0-148.070 119.997-268.114 268.049-268.19zM390.095 789.331c0.153 0 0.334 0.001 0.515 0.001 48.31 0 92.944-15.734 129.059-42.357 9.134-6.772 17.73-14.208 25.723-22.243 7.962-8.056 15.323-16.731 21.994-25.939 26.309-36.2 41.822-80.733 41.822-128.89 0-121.187-98.242-219.429-219.429-219.429s-219.429 98.242-219.429 219.429c0 121.187 98.242 219.429 219.429 219.429 0.111 0 0.221 0 0.332 0zM748.495 129.339l-146.286 138.484c-4.242 7.549-12.198 12.566-21.327 12.566-13.465 0-24.381-10.916-24.381-24.381 0-9.509 5.444-17.747 13.386-21.767l145.206-138.304c18.311-18.22 43.558-29.483 71.436-29.483 55.938 0 101.285 45.347 101.285 101.285 0 28.060-11.411 53.455-29.845 71.798l-148.728 141.901c-3.164 1.608-6.9 2.55-10.856 2.55-13.465 0-24.381-10.916-24.381-24.381 0-4.337 1.132-8.409 3.117-11.937l148.173-141.531c9.84-9.912 15.922-23.568 15.922-38.644s-6.081-28.731-15.925-38.647c-9.95-9.326-23.376-15.057-38.139-15.057-15.013 0-28.642 5.926-38.676 15.565zM365.714 693.514c0.173 0.001 0.378 0.001 0.583 0.001 32.522 0 62.566-10.613 86.856-28.564 12.33-9.109 23.203-20.059 32.218-32.448 4.802-6.12 11.709-9.738 19.462-9.738 13.465 0 24.381 10.916 24.381 24.381 0 5.011-1.512 9.669-4.104 13.542-12.378 16.87-26.871 31.364-43.275 43.408-32.432 23.998-72.53 38.18-115.941 38.18-0.063 0-0.127 0-0.19 0-13.455 0-24.371-10.916-24.371-24.381s10.916-24.381 24.381-24.381z" />
<glyph unicode="&#xe917;" glyph-name="schedule" d="M316.952 813.712v-97.524c0-13.465 10.916-24.381 24.381-24.381s24.381 10.916 24.381 24.381v97.524c0 13.465-10.916 24.381-24.381 24.381s-24.381-10.916-24.381-24.381zM658.286 813.712v-97.524c0-13.465 10.916-24.381 24.381-24.381s24.381 10.916 24.381 24.381v97.524c0 13.465-10.916 24.381-24.381 24.381s-24.381-10.916-24.381-24.381zM363.764 475.548h-15.848l-118.979-207.238c-2.218-3.777-3.528-8.318-3.528-13.166s1.31-9.389 3.595-13.29l8.954-13.041h237.958c9.645 0.049 18.058 5.276 22.607 13.041l6.894 14.265-118.979 206.019-8.777 13.166zM438.857 277.331h-149.943l74.606 129.219zM788.236 471.16h-219.429c-12.792 0-23.162-10.37-23.162-23.162s10.37-23.162 23.162-23.162h219.429c12.792 0 23.162 10.37 23.162 23.162s-10.37 23.162-23.162 23.162zM788.236 276.112h-219.429c-12.792 0-23.162-10.37-23.162-23.162s10.37-23.162 23.162-23.162h219.429c12.792 0 23.162 10.37 23.162 23.162s-10.37 23.162-23.162 23.162zM788.236 373.636h-219.429c-12.792 0-23.162-10.37-23.162-23.162s10.37-23.162 23.162-23.162h219.429c12.792 0 23.162 10.37 23.162 23.162s-10.37 23.162-23.162 23.162zM780.19 789.331c-13.465 0-24.381-10.916-24.381-24.381s10.916-24.381 24.381-24.381c40.396 0 73.143-32.747 73.143-73.143v-487.619c0-40.396-32.747-73.143-73.143-73.143h-536.381c-40.396 0-73.143 32.747-73.143 73.143v390.095h617.57c13.465 0 24.381 10.916 24.381 24.381s-10.916 24.381-24.381 24.381h-617.57v48.762c0 40.396 32.747 73.143 73.143 73.143 13.465 0 24.381 10.916 24.381 24.381s-10.916 24.381-24.381 24.381c-67.326 0-121.905-54.579-121.905-121.905v-487.619c0-67.326 54.579-121.905 121.905-121.905h536.381c67.326 0 121.905 54.579 121.905 121.905v487.619c0 67.326-54.579 121.905-121.905 121.905zM426.667 789.331c-13.465 0-24.381-10.916-24.381-24.381s10.916-24.381 24.381-24.381h170.667c13.465 0 24.381 10.916 24.381 24.381s-10.916 24.381-24.381 24.381z" />
<glyph unicode="&#xe918;" glyph-name="arrow-left" d="M784.335 776.409c-6.994 4.107-15.404 6.533-24.381 6.533s-17.387-2.426-24.611-6.657l-495.678-286.108c-14.63-8.599-24.295-24.261-24.295-42.179s9.665-33.58 24.066-42.055l496.137-286.357c6.994-4.107 15.404-6.533 24.381-6.533 26.913 0 48.733 21.803 48.762 48.709v188.711c0 13.465-10.916 24.381-24.381 24.381s-24.381-10.916-24.381-24.381v-188.709l-495.909 286.232 495.909 286.232v-188.709c0-13.465 10.916-24.381 24.381-24.381s24.381 10.916 24.381 24.381v188.709c-0.019 17.934-9.717 33.599-24.151 42.055z" />
<glyph unicode="&#xe919;" glyph-name="arrow-right" d="M784.335 490.177l-495.909 286.232c-6.994 4.107-15.404 6.533-24.381 6.533-26.913 0-48.733-21.803-48.762-48.709v-188.711c0-13.465 10.916-24.381 24.381-24.381s24.381 10.916 24.381 24.381v188.709l495.909-286.232-495.909-286.232v188.709c0 13.465-10.916 24.381-24.381 24.381s-24.381-10.916-24.381-24.381v-188.709c0.028-26.909 21.849-48.712 48.762-48.712 8.977 0 17.387 2.426 24.611 6.657l495.678 286.108c14.63 8.599 24.295 24.261 24.295 42.179s-9.665 33.58-24.066 42.055z" />
<glyph unicode="&#xe91a;" glyph-name="adress" d="M512 838.093c-161.583 0-292.571-130.989-292.571-292.571 0-53.638 29.013-129.707 88.747-232.594 4.396-6.837 11.964-11.301 20.575-11.301 13.465 0 24.381 10.916 24.381 24.381 0 4.132-1.028 8.023-2.841 11.433-67.959 116.897-82.1 177.605-82.1 208.082 0 134.652 109.157 243.81 243.81 243.81s243.81-109.157 243.81-243.81c0-73.143-83.87-231.375-224.305-421.547-4.495-5.948-11.556-9.752-19.505-9.752s-15.009 3.804-19.46 9.691c-23.206 31.269-45.393 62.72-66.361 93.44-4.505 5.624-11.373 9.195-19.074 9.195-13.465 0-24.381-10.916-24.381-24.381 0-4.46 1.198-8.64 3.289-12.237 21.149-31.091 43.823-63.030 67.229-94.969 13.475-18.034 34.768-29.584 58.758-29.584s45.283 11.55 58.621 29.392c87.665 118.439 233.95 334.211 233.95 450.752 0 161.583-130.989 292.571-292.571 292.571zM512 676.448c0.014 0 0.031 0 0.047 0 14.669 0 28.734-2.591 41.76-7.341 1.586-0.607 4.394-1.114 7.32-1.114 13.691 0 24.79 11.099 24.79 24.79 0 10.765-6.861 19.927-16.449 23.352-17.259 6.353-36.993 9.998-57.577 9.998-94.257 0-170.667-76.41-170.667-170.667s76.41-170.667 170.667-170.667c94.257 0 170.667 76.41 170.667 170.667 0 18.933-3.083 37.146-8.774 54.164-2.658 9.092-12.013 16.486-23.096 16.486-13.465 0-24.381-10.916-24.381-24.381 0-3.025 0.551-5.921 1.558-8.593 3.956-11.397 6.272-24.727 6.272-38.598 0-67.326-54.579-121.905-121.905-121.905s-121.905 54.579-121.905 121.905c0 67.244 54.446 121.772 121.659 121.905z" />
<glyph unicode="&#xe91b;" glyph-name="mail" d="M780.19 764.95h-536.381c-67.326 0-121.905-54.579-121.905-121.905 0-0.006 0-0.014 0-0.022 0-23.404 11.904-44.027 29.988-56.144l292.815-193.982c19.062-12.941 42.58-20.661 67.901-20.661s48.839 7.72 68.329 20.935l215.588 144.549c7.217 4.322 11.973 12.099 11.973 20.988 0 13.465-10.916 24.381-24.381 24.381-5.528 0-10.626-1.84-14.716-4.94l-215.955-144.779c-11.432-7.755-25.534-12.38-40.716-12.38s-29.284 4.626-40.973 12.545l-292.314 193.664c-5.263 3.401-8.713 9.214-8.777 15.838 0 40.405 32.747 73.152 73.143 73.152h536.381c40.396 0 73.143-32.747 73.143-73.143v-390.095c0-40.396-32.747-73.143-73.143-73.143h-536.381c-40.396 0-73.143 32.747-73.143 73.143v219.429c0 13.465-10.916 24.381-24.381 24.381s-24.381-10.916-24.381-24.381v-219.429c0-67.326 54.579-121.905 121.905-121.905h536.381c67.326 0 121.905 54.579 121.905 121.905v390.095c0 67.326-54.579 121.905-121.905 121.905zM772.632 249.781c13.361 0.137 24.139 11 24.139 24.38 0 7.95-3.805 15.011-9.693 19.462l-94.659 70.018c-4.002 2.985-9.045 4.779-14.507 4.779-13.479 0-24.406-10.927-24.406-24.406 0-8.017 3.866-15.131 9.835-19.581l94.663-69.776c4.024-3.044 9.112-4.876 14.629-4.876zM256.731 254.657l94.598 69.73c6.034 4.495 9.899 11.61 9.899 19.627 0 13.479-10.927 24.406-24.406 24.406-5.462 0-10.505-1.794-14.571-4.825l-94.533-69.683c-6.034-4.495-9.899-11.61-9.899-19.627 0-13.479 10.927-24.406 24.406-24.406 5.462 0 10.505 1.794 14.571 4.825z" />
<glyph unicode="&#xe91c;" glyph-name="phone" d="M633.905 838.093h-243.81c-67.326 0-121.905-54.579-121.905-121.905v-536.381c0-67.326 54.579-121.905 121.905-121.905h243.81c67.326 0 121.905 54.579 121.905 121.905v536.381c0 67.326-54.579 121.905-121.905 121.905zM633.905 106.665h-243.81c-40.396 0-73.143 32.747-73.143 73.143v487.619h316.952c13.465 0 24.381 10.916 24.381 24.381s-10.916 24.381-24.381 24.381h-316.952c0 40.396 32.747 73.143 73.143 73.143h243.81c40.396 0 73.143-32.747 73.143-73.143v-414.476h-316.952c-1.779 0.465-3.822 0.731-5.927 0.731-13.465 0-24.381-10.916-24.381-24.381s10.916-24.381 24.381-24.381c2.105 0 4.148 0.267 6.096 0.768l316.783-0.037v-74.606c0-40.396-32.747-73.143-73.143-73.143zM414.476 569.903c0-13.465-10.916-24.381-24.381-24.381s-24.381 10.916-24.381 24.381c0 13.465 10.916 24.381 24.381 24.381s24.381-10.916 24.381-24.381zM536.381 569.903c0-13.465-10.916-24.381-24.381-24.381s-24.381 10.916-24.381 24.381c0 13.465 10.916 24.381 24.381 24.381s24.381-10.916 24.381-24.381zM658.286 569.903c0-13.465-10.916-24.381-24.381-24.381s-24.381 10.916-24.381 24.381c0 13.465 10.916 24.381 24.381 24.381s24.381-10.916 24.381-24.381zM414.476 472.379c0-13.465-10.916-24.381-24.381-24.381s-24.381 10.916-24.381 24.381c0 13.465 10.916 24.381 24.381 24.381s24.381-10.916 24.381-24.381zM536.381 472.379c0-13.465-10.916-24.381-24.381-24.381s-24.381 10.916-24.381 24.381c0 13.465 10.916 24.381 24.381 24.381s24.381-10.916 24.381-24.381zM536.381 178.345c0-13.465-10.916-24.381-24.381-24.381s-24.381 10.916-24.381 24.381c0 13.465 10.916 24.381 24.381 24.381s24.381-10.916 24.381-24.381zM658.286 472.379c0-13.465-10.916-24.381-24.381-24.381s-24.381 10.916-24.381 24.381c0 13.465 10.916 24.381 24.381 24.381s24.381-10.916 24.381-24.381z" />
<glyph unicode="&#xe91d;" glyph-name="study" d="M175.299 209.065h11.947c107.609-2.998 206.226-39.131 286.641-98.5 8.201-6.214 20.127-10.778 33.081-11.452 0.848-0.058 1.656-0.088 2.471-0.088s1.623 0.030 2.423 0.088c0.586-0.058 1.394-0.088 2.209-0.088s1.623 0.030 2.423 0.088c13.003 0.675 24.928 5.238 34.678 12.546 78.866 58.275 177.483 94.407 284.389 97.39l12.651 0.016c0.427-0.023 0.927-0.036 1.43-0.036 15.62 0 28.282 12.662 28.282 28.282 0 1.216-0.077 2.414-0.226 3.589l0.014 550.626c-0.603 12.998-11.288 23.308-24.381 23.308-13.479 0-24.406-10.927-24.406-24.406 0-0.386 0.009-0.77 0.027-1.151l-0.002-373.706v-157.501c-109.874-4.604-210.545-40.414-294.396-98.725l1.824 472.972c0.010 0.431 0.015 0.939 0.015 1.448 0 20.916-9.44 39.627-24.292 52.105-1.97 2.161-3.88 4.071-5.886 5.875-80.379 67.691-182.254 112.108-294.063 121.827l-4.429 0.139c-61.44 0-61.44-38.278-61.44-71.68v-501.272c-0.133-1.030-0.209-2.22-0.209-3.429 0-15.62 12.662-28.282 28.282-28.282 0.331 0 0.66 0.006 0.988 0.017zM195.048 764.95h14.141c102.523-9.786 194.11-50.163 267.213-111.776 5.581-4.816 9.929-12.36 11.194-20.909l0.023-471.719c-75.514 52.673-166.968 87.74-265.878 97.342l-26.693 0.182zM600.747 408.988c1.245-0.183 2.683-0.288 4.145-0.288s2.899 0.105 4.305 0.307c10.040 0.010 19 5.298 24.151 13.277l53.463 83.009 44.617-43.642c5.155-4.634 12.009-7.468 19.524-7.468 15.783 0 28.648 12.498 29.236 28.138l0.002 296.038c0 0.040 0 0.088 0 0.136 0 16.158-13.099 29.257-29.257 29.257-2.511 0-4.948-0.316-7.273-0.911-58.029-17.713-108.775-42.629-154.49-74.294-4.914-3.224-9.301-10.742-9.301-19.285 0-13.483 10.93-24.413 24.413-24.413 4.94 0 9.538 1.467 13.38 3.99 32.687 22.325 70.192 42.316 109.846 58.059l3.921-222.2-53.15 51.931-48.762-77.288v105.082c0 13.465-10.916 24.381-24.381 24.381s-24.381-10.916-24.381-24.381v-170.667c-0.015-0.354-0.024-0.769-0.024-1.186 0-12.807 8.299-23.677 19.812-27.524zM260.145 645.24c54.662-15.791 102.401-38.694 145.294-68.144 1.478-0.516 5.219-1.461 9.18-1.461 13.465 0 24.381 10.916 24.381 24.381 0 7.465-3.355 14.147-8.64 18.619-45.818 31.421-98.98 56.471-155.984 72.285-5.359 1.258-7.21 1.47-9.111 1.47-13.787 0-24.964-11.177-24.964-24.964 0-11.887 8.308-21.833 19.433-24.349zM260.145 545.522c54.662-15.791 102.401-38.694 145.294-68.144 2.060-1.369 6.658-2.837 11.598-2.837 13.483 0 24.413 10.93 24.413 24.413 0 8.543-4.388 16.061-11.033 20.423-45.875 31.449-99.037 56.498-156.041 72.313-5.359 1.258-7.21 1.47-9.111 1.47-13.787 0-24.964-11.177-24.964-24.964 0-11.887 8.308-21.833 19.433-24.349zM260.145 446.048c54.661-15.81 102.399-38.71 145.3-68.147 2.054-1.366 6.652-2.834 11.592-2.834 13.483 0 24.413 10.93 24.413 24.413 0 8.543-4.388 16.061-11.033 20.423-45.877 31.44-99.038 56.489-156.038 72.312-5.362 1.259-7.213 1.471-9.114 1.471-13.787 0-24.964-11.177-24.964-24.964 0-11.887 8.308-21.833 19.433-24.349z" />
<glyph unicode="&#xe91e;" glyph-name="vk" d="M755.81 553.080c-3.657 9.996-24.381 7.314-24.381 7.314h-73.143c-0.586 0.073-1.264 0.115-1.952 0.115-2.759 0-5.36-0.674-7.648-1.866-2.707-1.963-4.941-4.587-6.438-7.638-8.752-22.49-17.844-41.272-28.21-59.226-31.577-53.291-44.499-56.217-49.862-52.803-12.434 8.046-9.265 32.183-9.265 48.762 0 53.638 8.046 76.069-15.848 81.92-8.835 2.225-18.978 3.502-29.419 3.502-1.658 0-3.308-0.032-4.951-0.096-4.085 0.427-9.105 0.666-14.182 0.666-16.607 0-32.616-2.558-47.655-7.302-7.169-3.84-13.751-12.861-9.851-13.348 8.679-0.804 16.28-4.867 21.67-10.938 4.657-9.18 7.367-19.972 7.367-31.398 0-0.631-0.008-1.26-0.025-1.887s4.39-63.054-9.994-71.1c-9.996-5.364-24.381 5.608-52.663 55.832-8.592 14.831-17.34 32.63-24.949 51.021-2.536 6.409-4.61 9.186-7.201 11.368-3.228 2.211-6.996 3.826-11.056 4.628l-69.921 0.032s-10.484 0-14.385-4.876 0-12.434 0-12.434 54.613-127.512 116.297-191.878c30.249-33.379 73.553-54.449 121.788-55.1l26.448-0.001c5.185 0.57 9.79 2.689 13.438 5.876 2.417 3.387 3.882 7.647 3.882 12.248 0 0.228-0.004 0.456-0.011 0.682s0.001 38.976 17.555 44.828 40.96-37.79 65.341-54.613c7.82-6.314 17.881-10.136 28.834-10.136 1.264 0 2.517 0.051 3.755 0.151l64.934-0.011s34.133 2.194 17.798 28.77c-13.332 21.802-29.537 40.335-48.377 55.77-41.101 38.096-35.737 32.001 13.512 97.83 29.745 40.472 41.691 64.853 38.766 75.337zM796.77 678.642c-6.25-4.473-10.274-11.709-10.274-19.886 0-5.245 1.656-10.103 4.474-14.080 38.944-54.66 62.293-122.893 62.293-196.58 0-188.513-152.82-341.333-341.333-341.333s-341.333 152.82-341.333 341.333c0 188.513 152.82 341.333 341.333 341.333 66.16 0 127.924-18.823 180.228-51.406 2.762-2.711 8.245-4.868 14.231-4.868 13.465 0 24.381 10.916 24.381 24.381 0 10.335-6.431 19.169-15.51 22.717-58.253 36.273-128.781 57.746-204.324 57.746-215.444 0-390.095-174.652-390.095-390.095s174.652-390.095 390.095-390.095c215.444 0 390.095 174.652 390.095 390.095 0 84.272-26.722 162.303-72.156 226.081-3.684 4.799-10.771 8.636-18.755 8.636-4.967 0-9.588-1.485-13.441-4.036z" />
<glyph unicode="&#xe91f;" glyph-name="youtube" d="M669.745 601.842c-63.147 4.632-157.745 4.632-157.745 4.632v0s-94.598 0-157.745-4.632c-17.647-0.163-33.573-7.402-45.101-19.013-9.184-12.513-15.517-27.664-17.746-44.117-2.688-22.282-4.278-47.681-4.443-73.417l-0.001-34.363c0.167-25.966 1.757-51.364 4.696-76.349 1.978-13.751 8.311-28.901 17.682-41.684 12.75-11.275 29.773-18.493 48.47-18.986 36.184-3.415 153.213-4.634 153.213-4.634s94.598 0 157.745 4.632c17.647 0.163 33.573 7.402 45.101 19.013 9.184 12.513 15.517 27.664 17.746 44.117 2.688 22.282 4.278 47.681 4.443 73.417l0.001 34.607c-0.167 25.966-1.757 51.364-4.696 76.349-1.978 13.751-8.311 28.901-17.682 41.684-11.115 11.122-26.647 18.31-43.857 18.742zM465.432 389.484v126.781l121.905-63.634zM796.77 678.642c-6.25-4.473-10.274-11.709-10.274-19.886 0-5.245 1.656-10.103 4.474-14.080 38.944-54.66 62.293-122.893 62.293-196.58 0-188.513-152.82-341.333-341.333-341.333s-341.333 152.82-341.333 341.333c0 188.513 152.82 341.333 341.333 341.333 66.16 0 127.924-18.823 180.228-51.406 2.762-2.711 8.245-4.868 14.231-4.868 13.465 0 24.381 10.916 24.381 24.381 0 10.335-6.431 19.169-15.51 22.717-58.253 36.273-128.781 57.746-204.324 57.746-215.444 0-390.095-174.652-390.095-390.095s174.652-390.095 390.095-390.095c215.444 0 390.095 174.652 390.095 390.095 0 84.272-26.722 162.303-72.156 226.081-3.684 4.799-10.771 8.636-18.755 8.636-4.967 0-9.588-1.485-13.441-4.036z" />
<glyph unicode="&#xe920;" glyph-name="target-employee" d="M658.286 643.046c0 80.791-65.494 146.286-146.286 146.286s-146.286-65.494-146.286-146.286c0-80.791 65.494-146.286 146.286-146.286s146.286 65.494 146.286 146.286zM414.476 643.046c0 53.861 43.663 97.524 97.524 97.524s97.524-43.663 97.524-97.524c0-53.861-43.663-97.524-97.524-97.524s-97.524 43.663-97.524 97.524zM246.979 357.788c4.293-7.344 12.139-12.2 21.12-12.2 4.427 0 8.578 1.18 12.156 3.242 58.922 34.156 129.282 55.433 204.371 58.185l-57.472-195.024c-0.603-2.13-0.949-4.576-0.949-7.103 0-7.398 2.968-14.102 7.779-18.988l58.755-58.998c4.785-4.675 11.338-7.559 18.564-7.559 0.074 0 0.147 0 0.221 0.001 7.397 0.026 14.107 2.999 19.010 7.806l58.997 58.998c4.871 4.893 7.882 11.641 7.882 19.092 0 2.666-0.385 5.242-1.104 7.675l-57.491 192.906c76.306-6.014 145.85-30.459 205.589-68.84 1.931-1.312 6.441-2.721 11.28-2.721 13.467 0 24.384 10.917 24.384 24.384 0 8.628-4.481 16.209-11.243 20.543-75.449 48.181-167.327 76.761-265.88 76.761-90.537 0-175.44-24.12-248.635-66.284-5.238-2.929-10.34-10.943-10.34-20.148 0-4.301 1.114-8.342 3.069-11.85zM512 176.882l-34.133 34.133 34.133 115.078 34.133-114.103z" />
<glyph unicode="&#xe921;" glyph-name="target-vips" d="M268.19 399.236c-13.465 0-24.381-10.916-24.381-24.381v-97.524c0-81.92 117.76-146.286 268.19-146.286s268.19 64.366 268.19 146.286v97.524c0 13.465-10.916 24.381-24.381 24.381s-24.381-10.916-24.381-24.381v-97.524c0-46.080-90.21-97.524-219.429-97.524s-219.429 51.444-219.429 97.524v97.524c0 13.465-10.916 24.381-24.381 24.381zM859.916 578.68l-335.726 167.741-12.19 5.608-347.916-173.349c-9.31-4.341-15.646-13.621-15.646-24.381s6.337-20.040 15.482-24.312l335.89-167.079 13.166-5.608 97.524 48.762c8.453 3.951 14.204 12.381 14.204 22.156 0 13.465-10.916 24.381-24.381 24.381-4.22 0-8.189-1.072-11.65-2.958l-76.672-38.458-286.72 143.36 286.72 143.604 286.72-143.36-90.21-45.105c-7.901-4.212-13.188-12.399-13.188-21.821 0-13.612 11.035-24.647 24.647-24.647 4.19 0 8.136 1.046 11.592 2.89l129.33 64.789c9.31 4.341 15.646 13.621 15.646 24.381s-6.337 20.040-15.482 24.312z" />
<glyph unicode="&#xe922;" glyph-name="target-schools" d="M268.19 225.4c-13.465 0-24.381-10.916-24.381-24.381v-94.354c0-26.93 21.831-48.762 48.762-48.762h438.857c26.93 0 48.762 21.831 48.762 48.762v414.476c0 94.257-76.41 170.667-170.667 170.667h-170.667v48.762c1.169 13.702 12.58 24.381 26.485 24.381 0.032 0 0.064 0 0.096 0h98.982c0.033 0 0.072 0 0.111 0 13.953 0 25.418-10.656 26.7-24.274 0.008-13.572 10.924-24.488 24.389-24.488s24.381 10.916 24.381 24.381c-1.352 40.609-34.54 73.029-75.326 73.143h-99.242c-40.797-0.114-73.986-32.534-75.334-73.019l-0.003-48.886c-83.19-12.34-146.295-83.259-146.295-168.917 0-0.615 0.003-1.229 0.010-1.843l-0.001-147.655c0-13.465 10.916-24.381 24.381-24.381s24.381 10.916 24.381 24.381v147.749c0 67.326 54.579 121.905 121.905 121.905h195.048c67.326 0 121.905-54.579 121.905-121.905v-414.476h-438.857v94.354c0 13.465-10.916 24.381-24.381 24.381zM424.472 399.236h175.299c13.465 0 24.381-10.916 24.381-24.381s10.916-24.381 24.381-24.381c13.465 0 24.381 10.916 24.381 24.381 0 40.396-32.747 73.143-73.143 73.143h-175.299c-40.396 0-73.143-32.747-73.143-73.143v-149.455c0-40.396 32.747-73.143 73.143-73.143h175.299c40.396 0 73.143 32.747 73.143 73.143 0 13.465-10.916 24.381-24.381 24.381s-24.381-10.916-24.381-24.381c0-13.465-10.916-24.381-24.381-24.381h-175.299c-13.465 0-24.381 10.916-24.381 24.381v149.455c0 13.465 10.916 24.381 24.381 24.381z" />
<glyph unicode="&#xe923;" glyph-name="target-abits" d="M783.848 740.569l-131.901 93.135c-3.906 2.768-8.769 4.425-14.019 4.425-13.486 0-24.418-10.932-24.418-24.418 0-8.235 4.077-15.518 10.323-19.941l131.977-92.211v-594.895h-487.619v682.667h243.81v-119.954c0.138-27.952 22.76-50.575 50.699-50.712h119.967c13.465 0 24.381 10.916 24.381 24.381s-10.916 24.381-24.381 24.381h-119.954c-1.077 0-1.95 0.873-1.95 1.95v119.954c0 26.93-21.831 48.762-48.762 48.762h-243.81c-26.93 0-48.762-21.831-48.762-48.762v-682.667c0-26.93 21.831-48.762 48.762-48.762h487.619c26.93 0 48.762 21.831 48.762 48.762v594.895c-0.303 16.092-8.356 30.242-20.573 38.908zM655.36 350.474c-0.078-80.733-65.542-146.15-146.286-146.15-80.791 0-146.286 65.494-146.286 146.286s65.494 146.286 146.286 146.286c16.211 0 31.807-2.637 46.381-7.506 0.972-0.295 3.275-0.637 5.658-0.637 13.465 0 24.381 10.916 24.381 24.381 0 10.441-6.563 19.348-15.788 22.823-18.223 6.148-39.017 9.664-60.633 9.664-107.722 0-195.048-87.326-195.048-195.048s87.326-195.048 195.048-195.048c107.687 0 194.991 87.269 195.048 194.942 0 13.471-10.916 24.386-24.381 24.386s-24.381-10.916-24.381-24.381zM696.808 514.070c-4.407 4.382-10.481 7.090-17.189 7.090s-12.782-2.708-17.19-7.091l-177.248-177.248-48.762 48.762c-4.236 3.644-9.788 5.863-15.859 5.863-13.465 0-24.381-10.916-24.381-24.381 0-6.071 2.219-11.623 5.89-15.891l65.314-65.309c4.859-4.885 11.585-7.908 19.017-7.908s14.159 3.023 19.016 7.907l192.855 192.855c4.261 4.385 6.887 10.377 6.887 16.983 0 7.315-3.221 13.877-8.322 18.346z" />
<glyph unicode="&#xe924;" glyph-name="fax" d="M811.398 687.663c-1.662 0.404-3.57 0.636-5.532 0.636-13.465 0-24.381-10.916-24.381-24.381 0-10.915 7.173-20.155 17.062-23.263 31.83-8.539 54.761-36.964 54.786-70.749v-390.098c0-40.396-32.747-73.143-73.143-73.143h-536.381c-40.396 0-73.143 32.747-73.143 73.143v390.095c0 0.020 0 0.043 0 0.066 0 33.986 23.18 62.558 54.592 70.77 11.132 2.918 18.836 12.44 18.836 23.763 0 13.488-10.934 24.422-24.422 24.422-2.166 0-4.266-0.282-6.266-0.811-52.95-13.893-91.502-61.474-91.502-118.058 0-0.053 0-0.106 0-0.159v-390.087c0-67.326 54.579-121.905 121.905-121.905h536.381c67.326 0 121.905 54.579 121.905 121.905v390.095c-0.039 56.197-38.098 103.493-89.843 117.562zM243.81 399.236c-13.465 0-24.381-10.916-24.381-24.381s10.916-24.381 24.381-24.381h536.381c13.465 0 24.381 10.916 24.381 24.381s-10.916 24.381-24.381 24.381h-48.762v304.274l-128.975 127.512c-4.236 3.644-9.788 5.863-15.859 5.863-13.465 0-24.381-10.916-24.381-24.381 0-6.071 2.219-11.623 5.89-15.891l114.563-114.802v-282.575h-341.333v390.095h146.286v-121.905c0-14.812 12.007-26.819 26.819-26.819h117.516c13.465 0 24.381 10.916 24.381 24.381s-10.916 24.381-24.381 24.381h-95.573v121.905c0 14.812-12.007 26.819-26.819 26.819h-190.171c-14.812 0-26.819-12.007-26.819-26.819v-412.038zM341.333 251c0-13.465-10.916-24.381-24.381-24.381s-24.381 10.916-24.381 24.381c0 13.465 10.916 24.381 24.381 24.381s24.381-10.916 24.381-24.381zM437.882 251c0-13.465-10.916-24.381-24.381-24.381s-24.381 10.916-24.381 24.381c0 13.465 10.916 24.381 24.381 24.381s24.381-10.916 24.381-24.381zM536.381 251c0-13.465-10.916-24.381-24.381-24.381s-24.381 10.916-24.381 24.381c0 13.465 10.916 24.381 24.381 24.381s24.381-10.916 24.381-24.381zM635.368 591.114h-245.272c-13.465 0-24.381-10.916-24.381-24.381s10.916-24.381 24.381-24.381h246.248c13.465 0 24.381 10.916 24.381 24.381s-10.916 24.381-24.381 24.381zM635.368 496.76h-245.272c-13.465 0-24.381-10.916-24.381-24.381s10.916-24.381 24.381-24.381h246.248c13.465 0 24.381 10.916 24.381 24.381s-10.916 24.381-24.381 24.381z" />
<glyph unicode="&#xe925;" glyph-name="conference" d="M195.048 326.093h51.444c13.465 0 24.381 10.916 24.381 24.381s-10.916 24.381-24.381 24.381h-51.444c-13.465 0-24.381 10.916-24.381 24.381v365.714c0 13.465 10.916 24.381 24.381 24.381h463.238c13.465 0 24.381-10.916 24.381-24.381v-365.714c0-13.465-10.916-24.381-24.381-24.381h-280.381l-151.406-156.038c-2.924-3.973-4.68-8.963-4.68-14.363 0-13.465 10.916-24.381 24.381-24.381 5.645 0 10.842 1.918 14.974 5.139l136.967 140.881h260.145c40.396 0 73.143 32.747 73.143 73.143v365.714c0 40.396-32.747 73.143-73.143 73.143h-463.238c-40.396 0-73.143-32.747-73.143-73.143v-365.714c0-40.396 32.747-73.143 73.143-73.143zM842.362 594.284h-37.79c-13.465 0-24.381-10.916-24.381-24.381s10.916-24.381 24.381-24.381h37.79c6.059 0 10.971-4.912 10.971-10.971v-270.629c0-6.059-4.912-10.971-10.971-10.971h-62.171v-73.143l-71.436 73.143h-210.164c-6.059 0-10.971 4.912-10.971 10.971 0 13.465-10.916 24.381-24.381 24.381s-24.381-10.916-24.381-24.381c0-32.99 26.744-59.733 59.733-59.733h190.171l91.429-93.135c5.159-4.652 12.026-7.498 19.558-7.498 15.537 0 28.245 12.111 29.2 27.407l0.004 73.227h13.166c0.072 0 0.158 0 0.244 0 32.99 0 59.733 26.744 59.733 59.733 0 0 0 0 0 0v270.629c0 32.99-26.744 59.733-59.733 59.733zM268.19 643.046h316.952c13.465 0 24.381 10.916 24.381 24.381s-10.916 24.381-24.381 24.381h-316.952c-13.465 0-24.381-10.916-24.381-24.381s10.916-24.381 24.381-24.381zM268.19 521.141h170.667c13.465 0 24.381 10.916 24.381 24.381s-10.916 24.381-24.381 24.381h-170.667c-13.465 0-24.381-10.916-24.381-24.381s10.916-24.381 24.381-24.381z" />
<glyph unicode="&#xe926;" glyph-name="win-1" d="M195.048 374.855c0-0.128 0-0.28 0-0.432 0-68.302 21.739-131.527 58.674-183.133 3.834-4.013 10.292-7.12 17.475-7.12 13.465 0 24.381 10.916 24.381 24.381 0 4.302-1.114 8.344-3.070 11.852-31.2 43.172-49.94 97.311-49.94 155.826 0 148.118 120.073 268.19 268.19 268.19s268.19-120.073 268.19-268.19c0-148.118-120.073-268.19-268.19-268.19-51.556 0-99.714 14.548-140.594 39.762-3.050 2.886-8.532 5.043-14.519 5.043-13.465 0-24.381-10.916-24.381-24.381 0-10.335 6.431-19.169 15.51-22.717 47.173-29.171 104.182-46.426 165.222-46.426 175.048 0 316.952 141.904 316.952 316.952s-141.904 316.952-316.952 316.952c-175.048 0-316.952-141.904-316.952-316.952 0-0.498 0.001-0.997 0.003-1.495zM512 185.415c13.465 0 24.381 10.916 24.381 24.381v315.733c0.001 0.073 0.001 0.159 0.001 0.245 0 16.562-13.426 29.989-29.989 29.989-0.086 0-0.172 0-0.258-0.001-0.191 0.006-0.432 0.009-0.673 0.009-4.575 0-8.875-1.178-12.613-3.247l-81.298-41.136c-6.545-3.483-10.933-10.246-10.971-18.037 0-0.007 0-0.009 0-0.011 0-11.005 8.784-19.958 19.723-20.23 0.295-0.014 0.611-0.022 0.929-0.022 3.24 0 6.287 0.821 8.947 2.265l57.44 31.159v-296.472c-0.001-0.072-0.001-0.158-0.001-0.244 0-13.465 10.916-24.381 24.381-24.381 0 0 0.001 0 0.001 0zM338.408 823.708c-8.834 8.885-21.066 14.385-34.582 14.385-0.014 0-0.027 0-0.041 0h-75.823c-26.842-0.116-48.557-21.903-48.557-48.761 0-13.414 5.417-25.564 14.182-34.38l80.211-80.211c4.236-3.644 9.788-5.863 15.859-5.863 13.465 0 24.381 10.916 24.381 24.381 0 6.071-2.219 11.623-5.89 15.891l-80.186 80.181h75.825l66.072-66.072c4.236-3.644 9.788-5.863 15.859-5.863 13.465 0 24.381 10.916 24.381 24.381 0 6.071-2.219 11.623-5.89 15.891zM714.118 674.497c4.407-4.382 10.481-7.090 17.189-7.090s12.782 2.708 17.19 7.091l80.456 80.456c8.763 8.814 14.18 20.963 14.18 34.378 0 26.858-21.715 48.645-48.546 48.761h-75.836c-13.442-0.058-25.59-5.547-34.375-14.382l-66.075-65.831c-3.644-4.236-5.863-9.788-5.863-15.859 0-13.465 10.916-24.381 24.381-24.381 6.071 0 11.623 2.219 15.891 5.89l66.040 65.802h75.825l-80.213-80.213c-4.528-4.43-7.335-10.603-7.335-17.431 0-6.708 2.709-12.783 7.092-17.191z" />
<glyph unicode="&#xe927;" glyph-name="win-2" d="M337.92 138.36c-2.289-3.646-3.647-8.078-3.647-12.827 0-8.773 4.634-16.464 11.588-20.759 47.267-29.429 104.517-46.841 165.834-46.841 175.048 0 316.952 141.904 316.952 316.952s-141.904 316.952-316.952 316.952c-175.048 0-316.952-141.904-316.952-316.952 0-68.543 21.758-132.005 58.743-183.854 3.821-5.267 11.049-9.281 19.215-9.281 13.469 0 24.389 10.919 24.389 24.389 0 5.304-1.693 10.212-4.568 14.214-31.213 43.224-49.953 97.362-49.953 155.877 0 148.118 120.073 268.19 268.19 268.19s268.19-120.073 268.19-268.19c0-148.118-120.073-268.19-268.19-268.19-51.556 0-99.714 14.548-140.594 39.762-2.372 1.439-6.626 2.682-11.17 2.682-8.949 0-16.772-4.822-21.013-12.009zM620.983 442.39c0 66.56-46.568 102.888-113.615 102.888-34.385-0.020-66.656-9.059-94.578-24.879-5.498-3.221-9.772-10.082-9.772-17.942 0-0.032 0-0.063 0-0.095 0.137-11.336 9.362-20.477 20.722-20.477 0.086 0 0.172 0.001 0.258 0.002 3.749 0.089 7.262 1.072 10.348 2.742 21.173 14.068 47.030 22.979 74.875 24.308 2.147 0.213 4.241 0.327 6.362 0.327 31.913 0 57.783-25.87 57.783-57.783 0-2.431-0.15-4.827-0.442-7.179 0.028-56.039-40.932-86.271-157.229-194.766-5.343-5.021-8.696-12.107-8.777-19.977-0.030-0.439-0.046-0.933-0.046-1.432 0-11.984 9.715-21.699 21.699-21.699 1.922 0 3.786 0.25 5.561 0.719l165.639-0.034c1.464-0.539 3.154-0.851 4.917-0.851 8.079 0 14.629 6.549 14.629 14.629 0 0.385-0.015 0.767-0.044 1.145 0.003 10.678-9.262 19.455-19.502 33.839h-117.272c88.015 77.288 138.484 116.541 138.484 186.514zM465.432 238.078c3.429 2.516 6.451 5.075 9.287 7.824-3.436-7.092-6.605-7.58-9.287-7.824zM182.857 808.105c-2.365-5.533-3.74-11.97-3.74-18.729 0-13.436 5.434-25.603 14.225-34.423l80.212-80.212c4.236-3.644 9.788-5.863 15.859-5.863 13.465 0 24.381 10.916 24.381 24.381 0 6.071-2.219 11.623-5.89 15.891l-79.943 80.181h75.825l66.072-66.072c4.236-3.644 9.788-5.863 15.859-5.863 13.465 0 24.381 10.916 24.381 24.381 0 6.071-2.219 11.623-5.89 15.891l-65.802 66.040c-8.834 8.885-21.066 14.385-34.582 14.385-0.014 0-0.027 0-0.041 0h-75.823c-0.030 0-0.066 0-0.102 0-20.155 0-37.454-12.228-44.883-29.67zM794.575 838.093h-75.825c-13.442-0.058-25.59-5.547-34.375-14.382l-66.075-65.831c-3.644-4.236-5.863-9.788-5.863-15.859 0-13.465 10.916-24.381 24.381-24.381 6.071 0 11.623 2.219 15.891 5.89l66.040 65.802h75.825l-80.213-80.213c-5.23-4.498-8.522-11.124-8.522-18.518 0-13.465 10.916-24.381 24.381-24.381 7.395 0 14.020 3.292 18.491 8.49l80.24 80.245c8.763 8.814 14.18 20.963 14.18 34.378 0 26.858-21.715 48.645-48.546 48.761z" />
<glyph unicode="&#xe928;" glyph-name="guap-logo" d="M889.181 548.407c-63.099 16.461-148.38 28.375-242.518 34.175 1.568-25.004 2.587-50.714 3.292-76.816 172.051-11.209 263.055-40.211 291.037-57.847-37.859-24.456-183.966-62.080-428.914-62.080s-391.917 37.702-429.149 62.158c35.664 23.515 169.386 59.023 400.696 61.923 21.025 0.133 38.017 17.208 38.017 38.251 0 21.126-17.126 38.252-38.252 38.252-0.083 0-0.165 0-0.248-0.001h-0.458c-113.342-1.411-482.685-15.677-482.685-138.425 0-131.998 426.484-138.582 512-138.582s512 6.663 512 138.66c0 58.396-76.894 85.203-134.819 100.331zM569.769 310.122c-11.209-172.443-40.211-263.133-57.847-291.116-24.456 37.859-62.080 183.966-62.080 428.914s37.624 391.368 62.158 429.070c23.515-36.605 60.12-176.127 62.080-409.788 0.178-20.99 17.235-37.938 38.25-37.938 0 0 0.001 0 0.001 0v0c0.001 0 0.001 0 0.002 0 21.125 0 38.251 17.126 38.251 38.251 0 0.138-0.001 0.275-0.002 0.413-1.097 124.922-12.306 242.027-31.353 329.659-24.612 110.834-58.631 162.41-107.228 162.41-131.998 0-138.66-426.484-138.66-512s6.663-512 138.66-512c58.474 0 85.281 76.894 100.331 134.741 16.461 63.177 28.375 148.536 34.175 242.988-28.296-1.96-54.476-2.979-76.737-3.606z" />
<glyph unicode="&#xe92f;" glyph-name="win-3" d="M338.408 823.708c-8.834 8.885-21.066 14.385-34.582 14.385-0.014 0-0.027 0-0.041 0h-75.823c-26.842-0.116-48.557-21.903-48.557-48.761 0-13.414 5.417-25.564 14.182-34.38l80.211-80.211c4.236-3.644 9.788-5.863 15.859-5.863 13.465 0 24.381 10.916 24.381 24.381 0 6.071-2.219 11.623-5.89 15.891l-80.186 80.181h75.825l66.072-66.072c4.236-3.644 9.788-5.863 15.859-5.863 13.465 0 24.381 10.916 24.381 24.381 0 6.071-2.219 11.623-5.89 15.891zM714.118 674.497c4.407-4.382 10.481-7.090 17.189-7.090s12.782 2.708 17.19 7.091l80.456 80.456c8.763 8.814 14.18 20.963 14.18 34.378 0 26.858-21.715 48.645-48.546 48.761h-75.836c-13.442-0.058-25.59-5.547-34.375-14.382l-66.075-65.831c-3.644-4.236-5.863-9.788-5.863-15.859 0-13.465 10.916-24.381 24.381-24.381 6.071 0 11.623 2.219 15.891 5.89l66.040 65.802h75.825l-80.213-80.213c-4.528-4.43-7.335-10.603-7.335-17.431 0-6.708 2.709-12.783 7.092-17.191zM195.048 374.855c0-0.128 0-0.28 0-0.432 0-68.302 21.739-131.527 58.674-183.133 3.581-6.646 11.564-11.701 20.727-11.701 13.465 0 24.381 10.916 24.381 24.381 0 6.282-2.376 12.009-6.278 16.331-31.244 43.275-49.984 97.413-49.984 155.928 0 148.118 120.073 268.19 268.19 268.19s268.19-120.073 268.19-268.19c0-148.118-120.073-268.19-268.19-268.19-51.556 0-99.714 14.548-140.594 39.762-3.050 2.886-8.532 5.043-14.519 5.043-13.465 0-24.381-10.916-24.381-24.381 0-10.335 6.431-19.169 15.51-22.717 47.173-29.171 104.182-46.426 165.222-46.426 175.048 0 316.952 141.904 316.952 316.952s-141.904 316.952-316.952 316.952c-175.048 0-316.952-141.904-316.952-316.952 0-0.498 0.001-0.997 0.003-1.495zM497.859 237.103c-21.72 0.351-42.003 6.185-59.623 16.171-0.839 0.128-2.517 0.388-4.255 0.388s-3.417-0.26-4.997-0.743c-0.323 0.066-0.841 0.086-1.363 0.086-11.311 0-20.48-9.169-20.48-20.48 0-9.143 5.991-16.886 14.261-19.519 20.998-9.144 45.295-14.441 70.829-14.441 0.865 0 1.728 0.006 2.589 0.018 85.691-0.001 121.774 43.884 121.774 94.597 0.013 0.548 0.021 1.193 0.021 1.84 0 40.919-30.546 74.703-70.080 79.794 5.323 0.746 10.515 2.47 15.182 5.031 26.266 14.129 44.095 41.437 44.636 72.956 0.001 46.398-37.789 85.895-104.593 85.895-28.869-0.193-56.247-6.365-81.026-17.337-5.49-2.549-10.136-9.249-10.159-17.037-0.001-0.076-0.002-0.162-0.002-0.248 0-10.638 8.623-19.261 19.261-19.261 0.086 0 0.172 0.001 0.258 0.002-0.003 0 0.008 0 0.020 0 2.879 0 5.633 0.537 8.167 1.516 18.099 9.254 39.596 14.881 62.365 15.305 36.466 0.002 57.922-18.040 57.922-51.442 0-39.497-30.476-59.733-73.143-58.27-14.872 0-28.526-4.389-28.526-19.992 0.347-11.983 10.143-21.565 22.178-21.565 0.776 0 1.542 0.040 2.298 0.118 44.766 2.43 82.557-8.054 82.557-57.303 1.707-32.183-18.286-56.076-66.072-56.076z" />
<glyph unicode="&#xe930;" glyph-name="star" d="M245.76 362.044h-7.447l-212.247 52.752c-15.149 3.703-26.216 17.16-26.216 33.202s11.067 29.499 25.982 33.154l327.604 80.107c22.562 5.628 39.986 23.052 45.524 45.187l79.838 327.487c3.703 15.149 17.16 26.216 33.202 26.216s29.499-11.067 33.154-25.982l93.139-382.217c0.303-1.628 0.476-3.501 0.476-5.415 0-17.138-13.893-31.030-31.030-31.030-13.865 0-25.606 9.093-29.584 21.641l-60.569 248.462c-0.84 2.5-3.161 4.268-5.896 4.268s-5.056-1.769-5.883-4.224l-55.867-230.289c-5.678-22.361-22.943-39.627-44.875-45.212l-253.637-62.153 101.469-24.824c15.584-1.924 27.529-15.082 27.529-31.030 0-17.261-13.992-31.253-31.253-31.253-1.312 0-2.606 0.081-3.876 0.238zM512-64.002c-0.011 0-0.024 0-0.036 0-15.988 0-29.408 10.992-33.116 25.83l-93.141 382.218c-0.879 2.742-1.386 5.897-1.386 9.169 0 17.138 13.893 31.030 31.030 31.030 15.224 0 27.887-10.963 30.525-25.426l60.538-248.432c0.84-2.5 3.161-4.268 5.896-4.268s5.056 1.769 5.883 4.224l55.867 230.289c5.678 22.361 22.943 39.627 44.875 45.212l253.326 62.153-96.194 23.583c-13.577 3.514-23.442 15.654-23.442 30.099 0 17.145 13.899 31.045 31.045 31.045 2.7 0 5.32-0.345 7.818-0.993l206.756-50.532c15.149-3.703 26.216-17.16 26.216-33.202s-11.067-29.499-25.982-33.154l-327.604-80.107c-22.562-5.628-39.986-23.052-45.524-45.187l-80.149-327.487c-3.758-15.074-17.179-26.065-33.166-26.065-0.013 0-0.026 0-0.038 0zM983.040 421.002v0z" />
<glyph unicode="&#xe931;" glyph-name="logo-i02" d="M455.215 505.342c-14.855-14.848-24.043-35.364-24.043-58.027s9.188-43.178 24.043-58.026v0c4.318-3.728 9.984-5.998 16.181-5.998 13.71 0 24.824 11.114 24.824 24.824 0 6.166-2.248 11.807-5.969 16.148-5.896 5.886-9.56 14.066-9.56 23.102 0 18.063 14.643 32.706 32.706 32.706s32.706-14.643 32.706-32.706c0-9.036-3.664-17.216-9.588-23.135-3.323-4.185-5.332-9.544-5.332-15.372 0-13.71 11.114-24.824 24.824-24.824 5.641 0 10.843 1.882 15.012 5.052 15.137 14.858 24.558 35.605 24.558 58.552 0 45.312-36.732 82.044-82.044 82.044-22.932 0-43.666-9.408-58.554-24.575zM738.521 673.837l-2.358 2.42c-3.988 2.851-8.963 4.559-14.337 4.559-13.71 0-24.824-11.114-24.824-24.824 0-6.276 2.329-12.007 6.169-16.378 48.84-48.846 79.062-116.36 79.062-190.933s-30.222-142.086-79.087-190.961c-4.424-4.48-7.157-10.64-7.157-17.439s2.733-12.958 7.16-17.442l-0.003 0.003c4.481-4.424 10.641-7.157 17.439-7.157s12.958 2.733 17.442 7.16c57.729 57.79 93.433 137.597 93.433 225.744 0 87.899-35.504 167.506-92.953 225.262zM242.036 448.619c-0.001 0.246-0.001 0.537-0.001 0.828 0 74.297 30.201 141.54 78.995 190.123 3.449 4.235 5.533 9.685 5.533 15.621 0 13.71-11.114 24.824-24.824 24.824-5.921 0-11.357-2.073-15.624-5.532-57.741-57.765-93.482-137.61-93.482-225.802s35.741-168.037 93.528-225.839l1.365-1.365c4.454-4.389 10.564-7.108 17.309-7.137h0.006c0.043 0 0.094 0 0.144 0 6.788 0 12.94 2.725 17.422 7.14 4.421 4.478 7.154 10.638 7.154 17.436s-2.733 12.958-7.16 17.442c-49.616 48.728-80.367 116.525-80.367 191.505 0 0.266 0 0.532 0.001 0.798zM650.581 596.943c-4.34 4.121-10.222 6.656-16.695 6.656-0.305 0-0.609-0.006-0.912-0.017-13.172-0.619-23.651-11.484-23.651-24.797 0-6.997 2.895-13.318 7.553-17.831 29.885-28.107 48.493-67.897 48.493-112.034 0-42.311-17.101-80.629-44.769-108.417-4.419-4.475-7.152-10.635-7.152-17.434s2.733-12.958 7.16-17.442l-0.003 0.003c4.461-4.426 10.596-7.17 17.371-7.199h0.006c6.812 0.030 12.972 2.799 17.439 7.261 36.468 36.513 59.020 86.931 59.020 142.617 0 0.196 0 0.391-0.001 0.587-0.041 58.258-24.53 110.818-63.766 147.958zM405.69 340.137c-27.765 27.81-44.935 66.204-44.935 108.609 0 42.033 16.87 80.126 44.209 107.877 4.406 4.462 7.139 10.622 7.139 17.42s-2.733 12.958-7.16 17.442c-4.306 4.406-10.313 7.141-16.958 7.141-0.19 0-0.38-0.002-0.569-0.007-6.792-0.047-12.952-2.837-17.41-7.321-36.244-36.662-58.632-87.085-58.632-142.738 0-56.055 22.713-106.805 59.438-143.549l0.434-0.434c4.461-4.426 10.596-7.17 17.371-7.199h0.006c13.535 0.228 24.42 11.253 24.42 24.821 0 6.678-2.637 12.74-6.927 17.202z" />
<glyph unicode="&#xe932;" glyph-name="logo-i06" d="M822.489 761.404c-4.426 4.152-10.399 6.703-16.966 6.703-1.749 0-3.456-0.181-5.102-0.525-22.677-4.626-227.911-50.303-397.709-220.101-90.546-90.174-135.851-170.853-134.609-240.485 0.041-20.978 5.296-40.719 14.536-58.009l-81.624-80.635c-4.331-4.315-7.010-10.285-7.010-16.88 0-13.16 10.669-23.829 23.829-23.829 6.565 0 12.509 2.655 16.819 6.949l294.229 294.353c4.304 4.304 6.966 10.25 6.966 16.818 0 13.136-10.649 23.785-23.785 23.785-6.568 0-12.514-2.662-16.818-6.966l-176.5-176.562c-1.847 6.51-2.952 13.999-3.041 21.732-0.683 38.529 19.735 105.554 120.397 206.279 126.293 126.293 273.625 179.976 338.603 198.594-6.578-25.569-18.184-66.405-38.167-125.549l-72.487-1.924c-13.389-0.41-24.087-11.362-24.087-24.813 0-2.916 0.503-5.715 1.427-8.314l27.315-77.216c-15.701-23.273-71.494-96.008-200.332-175.507-7.461-4.108-12.432-11.919-12.432-20.891 0-13.127 10.642-23.769 23.769-23.769 5.042 0 9.718 1.57 13.565 4.248 162.335 100.177 216.452 191.033 222.037 201.025 2.007 3.466 3.191 7.626 3.191 12.062 0 2.976-0.533 5.827-1.508 8.463l-20.487 57.858 56.599 1.303c10.55 0.272 19.44 7.084 22.785 16.521 40.703 118.585 51.44 173.323 53.178 183.066 0.307 1.466 0.484 3.15 0.484 4.876 0 6.751-2.694 12.872-7.067 17.347z" />
<glyph unicode="&#xe933;" glyph-name="logo-iibmp" d="M307.572 256.107v203.807l190.092-119.343c3.905-2.53 8.678-4.034 13.803-4.034 0.013 0 0.026 0 0.039 0h-0.002c0.024 0 0.053 0 0.082 0 5.031 0 9.722 1.457 13.675 3.971l196.132 123.563v-114.129c0.001-0.17 0.002-0.37 0.002-0.571 0-12.73-2.555-24.863-7.181-35.914-15.97-38.236-66.984-109.667-223.5-109.667h-7.509c-4.903 0-4.903 0-9.247 0l-9.557 0.496c-0.788 0.092-1.701 0.145-2.626 0.145-13.162 0-23.831-10.67-23.831-23.831 0-5.694 1.997-10.922 5.329-15.021 3.665-4.596 9.136-7.689 15.339-8.205 11.933-0.936 14.726-1.122 18.698-1.122h13.591c207.531 0 261.213 116.612 273.998 160.24 2.363 7.841 3.724 16.852 3.724 26.181 0 0.068 0 0.137 0 0.205v148.376c0.018 0.343 0.029 0.744 0.029 1.148s-0.010 0.805-0.031 1.204l50.582 31.967c6.781 4.344 11.451 11.473 12.4 19.734 0.089 0.87 0.133 1.736 0.133 2.611 0 9.082-4.735 17.058-11.871 21.594l-294.706 185.685c-3.875 2.458-8.594 3.917-13.653 3.917s-9.779-1.459-13.759-3.979l-294.744-185.561c-6.874-4.233-11.387-11.716-11.387-20.255 0-11.345 7.969-20.829 18.616-23.159 1.751-0.415 3.582-0.637 5.464-0.637 4.662 0 9.007 1.36 12.659 3.705l283.213 178.741 254.076-160.054-254.076-160.116-214.978 135.106c-3.574 2.286-7.934 3.643-12.61 3.643-13.059 0-23.645-10.586-23.645-23.645 0-1.375 0.117-2.722 0.342-4.032-0.252-1.089-0.388-2.505-0.392-3.952v-272.574c-0.003-0.154-0.005-0.335-0.005-0.516 0-6.29 2.202-12.066 5.877-16.599 4.698-5.736 11.84-9.399 19.838-9.399 2.288 0 4.506 0.3 6.617 0.862l27.934 7.407 42.387-57.096c4.71-6.318 12.161-10.365 20.558-10.365 4.476 0 8.683 1.15 12.342 3.171 7.9 4.587 13.216 13.143 13.216 22.939 0 0.181-0.002 0.362-0.005 0.542v176.101c0.001 0.098 0.002 0.214 0.002 0.33 0 11.374-7.866 20.912-18.456 23.468-1.657 0.368-3.371 0.559-5.13 0.559-13.093 0-23.707-10.614-23.707-23.707 0-0.010 0-0.021 0-0.031v-123.685l-31.030 44.746z" />
<glyph unicode="&#xe934;" glyph-name="logo-indo" d="M831.612 449.86c0 73.666-116.86 113.571-226.211 126.417-0.838 0.104-1.809 0.163-2.793 0.163-13.269 0-24.025-10.756-24.025-24.025 0-12.285 9.22-22.416 21.118-23.851 125.477-14.658 183.876-55.866 183.876-78.704 0-34.071-105.503-83.658-271.267-83.658q-22.962 0-44.373 1.241-12.412 15.391-24.452 32.706c-11.171 15.95-21.535 31.961-31.030 47.973q13.964 23.397 31.030 47.973c33.231 48.102 70.667 89.795 112.746 126.276 56.68 47.307 97.205 57.858 111.355 47.99 9.868-6.889 13.591-27.679 10.054-55.482-0.128-0.932-0.201-2.009-0.201-3.103 0-13.273 10.76-24.032 24.032-24.032 12.179 0 22.242 9.059 23.818 20.806 7.771 60.694-12.399 88.498-30.148 101.096-38.416 26.872-98.366 9.185-168.929-49.648-46.153-39.968-86.414-84.802-120.588-134.17q-10.857-15.706-19.669-29.36c-12.427 24.053-23.632 52.251-32.070 81.619-15.158 57.024-8.021 84.641 2.529 91.965s37.236 1.924 66.963-15.888c3.542-2.164 7.827-3.445 12.412-3.445 13.299 0 24.080 10.781 24.080 24.080 0 8.714-4.629 16.348-11.562 20.575-62.167 37.296-99.403 28.049-119.2 13.962-22.962-16.074-45.428-53.434-22.156-140.381 1.365-5.027 2.855-10.116 4.468-15.267-76.831-23.893-119.032-60.447-119.032-103.827 0-47.6 48.78-82.727 119.094-104.634-22.714-70.625-22.156-131.258 17.067-158.689 11.079-7.774 24.844-12.423 39.695-12.423 0.423 0 0.845 0.004 1.266 0.011 20.479-0.001 47.041 7.136 81.050 27.864 6.301 4.392 10.373 11.603 10.373 19.765 0 13.264-10.753 24.017-24.017 24.017-4.089 0-7.939-1.022-11.309-2.824-30.901-18.866-57.525-25.506-69.317-17.314-15.453 10.799-16.198 50.828 2.234 107.303 23.754-5.205 52.724-9.511 82.214-11.99 71.448-83.769 152.251-147.195 213.133-147.195 0.404-0.008 0.881-0.013 1.358-0.013 14.923 0 28.76 4.649 40.142 12.577 15.285 10.709 33.345 33.796 31.483 82.079-0.514 12.868-11.070 23.105-24.017 23.105-13.274 0-24.035-10.761-24.035-24.035 0-0.327 0.007-0.653 0.020-0.977 0.805-20.433-3.291-35.39-11.297-40.976-21.411-15.019-86.078 15.825-157.882 92.346h2.296c158.751 0.31 319.674 45.552 319.674 132.003zM241.043 449.86c0 16.012 27.369 40.464 86.885 59.020 10.485-24.783 20.335-44.747 31.133-64.11-12.267-15.948-21.762-35.311-29.954-54.301-56.413 17.191-88.374 40.65-88.374 59.392zM386.017 399.591q8.254-12.847 17.129-25.569c-9.309 1.427-18.618 2.979-26.934 4.655q4.53 10.364 9.806 20.914zM445.968 446.509c0-36.469 29.564-66.032 66.032-66.032s66.032 29.564 66.032 66.032c0 36.469-29.564 66.032-66.032 66.032-36.455-0.035-65.997-29.578-66.032-66.029zM529.936 446.509c0-9.906-8.030-17.936-17.936-17.936s-17.936 8.030-17.936 17.936c0 9.906 8.030 17.936 17.936 17.936 9.891-0.035 17.9-8.044 17.936-17.932z" />
<glyph unicode="&#xe935;" glyph-name="logo-igf" d="M832.543 614.507c-0.022 3.292-0.681 6.425-1.86 9.288l0.060 0.393c-1.004 3.219-2.531 6.010-4.504 8.423l-61.591 75.049c-4.587 5.617-11.513 9.174-19.27 9.174s-14.682-3.557-19.235-9.13l-62.096-75.076c-1.937-2.368-3.464-5.159-4.421-8.202l-0.048-0.176v-0.559c-1.119-2.698-1.778-5.831-1.8-9.114v-37.245l-25.197 4.965v32.209c0.027 0.436 0.043 0.945 0.043 1.458s-0.016 1.022-0.046 1.528c0.27 1.269 0.427 2.812 0.438 4.39 0 45.375-52.876 79.57-123.066 79.632v0c-70.128 0-123.066-34.257-123.066-79.624 0.014-1.899 0.24-3.739 0.654-5.505l-0.033-34.958-21.349-3.91v37.236c0 0.372 0 0.745 0 1.179 0.021 0.385 0.034 0.836 0.034 1.29 0 5.955-2.097 11.42-5.592 15.697l-61.591 75.049c-4.587 5.617-11.513 9.174-19.27 9.174s-14.682-3.557-19.235-9.13l-61.91-75.386c-0.58-0.753-1.154-1.604-1.674-2.49-3.471-4.302-5.548-9.69-5.587-15.561v-410.415c0-0.372 0-0.745 0-1.179 0.099-1.875 0.387-3.637 0.848-5.327-0.041-0.196-0.041-0.631-0.041-1.003s0.372-0.807 0.496-1.241 0.434-1.117 0.683-1.676c0.487-1.057 0.963-1.932 1.488-2.773l0.684-1.074c1.71-2.438 3.768-4.496 6.127-6.153l1.258-0.797c0.737-0.464 1.612-0.94 2.516-1.363l1.704-0.685c0.776-0.298 1.75-0.597 2.748-0.835l1.596-0.406c1.362-0.294 2.926-0.463 4.53-0.463s3.169 0.169 4.677 0.489l1.281 0.284 1.552 0.372c79.376 24.824 162.847 35.064 288.209 35.064 121.763 0 175.88-6.64 289.513-35.499 1.863-0.501 4.001-0.788 6.207-0.788 11.566 0 21.284 7.909 24.041 18.614 0.482 1.929 0.737 3.945 0.737 6.021 0 0.694-0.028 1.38-0.084 2.060 0.006 0.469 0.006 1.028 0.006 1.587zM241.292 237.24v368.702l38.353 46.67 34.257-41.705c-5.985 1.868-13.129 3.413-20.464 4.341-1.568 0.189-2.645 0.259-3.739 0.259-13.817 0-25.017-11.201-25.017-25.017 0-12.723 9.497-23.228 21.789-24.811 18.743-2.309 27.866-9.198 29.79-11.929v-246.070c0-13.71 11.114-24.824 24.824-24.824s24.824 11.114 24.824 24.824v219.012l20.976 4.158v-211.689c0-13.71 11.114-24.824 24.824-24.824s24.824 11.114 24.824 24.824v302.794c0 0.745 0 1.489 0 2.172 3.413 10.799 30.472 27.555 72.921 27.555 45.49 0 73.294-19.301 73.294-29.789-0.027-0.436-0.043-0.945-0.043-1.458s0.016-1.022 0.046-1.528c-0.27-1.269-0.427-2.812-0.438-4.39v-295.355c0-13.71 11.114-24.824 24.824-24.824s24.824 11.114 24.824 24.824v212.123l25.197-4.965v-218.453c0-13.71 11.114-24.824 24.824-24.824s24.824 11.114 24.824 24.824v299.008l37.236 45.677 34.257-41.705c-5.986 1.869-13.129 3.414-20.466 4.341-1.567 0.188-2.644 0.259-3.738 0.259-13.817 0-25.017-11.201-25.017-25.017 0-12.723 9.497-23.228 21.789-24.811 18.743-2.309 27.928-9.198 29.79-11.991 0.092-1.893 0.38-3.677 0.847-5.387l-0.041-312.487c-97.621 23.335-156.951 29.355-270.708 29.355s-194.25-8.068-269.467-27.865zM509.642 436.951c0 0 0 0 0 0-33.213 0-60.137-26.924-60.137-60.137 0-0.065 0-0.131 0-0.196v-53.61c0-13.71 11.114-24.824 24.824-24.824s24.824 11.114 24.824 24.824v53.62c0 5.655 4.585 10.24 10.24 10.24s10.24-4.585 10.24-10.24v-53.62c0-13.71 11.114-24.824 24.824-24.824s24.824 11.114 24.824 24.824v53.62c0 0.056 0 0.122 0 0.188 0 33.038-26.642 59.854-59.614 60.135z" />
<glyph unicode="&#xe936;" glyph-name="logo-i07" d="M329.418 142.225c-0.007 0-0.015 0-0.024 0-13.71 0-24.824 11.114-24.824 24.824 0 2.728 0.44 5.353 1.253 7.809l63.748 197.177-49.648 36.368c-6.636 4.524-10.937 12.048-10.937 20.576 0 13.71 11.114 24.824 24.824 24.824 5.815 0 11.164-2 15.395-5.349l64.181-47.002c6.211-4.567 10.198-11.847 10.198-20.058 0-2.724-0.439-5.345-1.249-7.797l-45.875-142.005 121.018 87.63c4.031 2.946 9.086 4.713 14.553 4.713s10.522-1.768 14.624-4.762l120.948-87.581-45.925 142.181c-0.768 2.287-1.211 4.921-1.211 7.658 0 8.189 3.965 15.452 10.080 19.973l64.486 47.028c4.179 3.31 9.528 5.309 15.343 5.309 13.71 0 24.824-11.114 24.824-24.824 0-8.528-4.301-16.052-10.851-20.521l-49.734-36.423 63.798-197.353c0.76-2.277 1.199-4.898 1.199-7.622 0-13.71-11.114-24.824-24.824-24.824-5.463 0-10.513 1.764-14.613 4.755l-168.176 121.714-167.998-121.639c-4.033-2.974-9.098-4.765-14.581-4.779zM807.408 489.517v0l-225.404 0.31c-10.902 0.065-20.132 7.146-23.408 16.954l-46.596 142.17-46.545-141.995c-3.34-10.022-12.631-17.12-23.582-17.129l-225.405-0.31c-13.71 0-24.824 11.114-24.824 24.824s11.114 24.824 24.824 24.824l207.407 0.31 64.543 197.104c3.359 9.998 12.645 17.073 23.583 17.073s20.224-7.075 23.532-16.898l64.47-197.28 207.407-0.31c13.71 0 24.824-11.114 24.824-24.824s-11.114-24.824-24.824-24.824z" />
<glyph unicode="&#xe937;" glyph-name="logo-i08" d="M826.337 557.287l-133.12 156.765c-4.308 5.066-10.686 8.259-17.811 8.259-5.765 0-11.042-2.091-15.114-5.556l-65.689-55.827c-4.949-4.302-8.060-10.608-8.060-17.64 0-5.758 2.086-11.029 5.543-15.099l127.383-150.029v-0.931c-0.931-32.892-49.028-84.154-79.189-108.73l-175.445-148.945c-1.725-1.063-3.816-1.693-6.053-1.693-3.806 0-7.187 1.823-9.316 4.643-2.104 2.364-3.377 5.461-3.377 8.855 0 0.127 0.002 0.253 0.005 0.378 0.101 2.451 1.203 4.644 2.909 6.181l108.924 92.788c5.174 4.070 8.466 10.33 8.466 17.36 0 12.168-9.864 22.032-22.032 22.032-5.793 0-11.064-2.236-14.996-5.891l-139.499-118.337c-1.501-1.223-3.437-1.965-5.547-1.965-0.474 0-0.939 0.037-1.392 0.109-3.404 0.465-6.379 2.218-8.433 4.748-2.113 2.067-3.411 4.916-3.411 8.068 0 2.933 1.124 5.603 2.965 7.604l108.909 92.462c4.776 4.072 7.785 10.094 7.785 16.818 0 12.183-9.876 22.059-22.059 22.059-5.458 0-10.453-1.982-14.305-5.266l-125.456-106.594c-1.505-1.192-3.431-1.913-5.526-1.913-0.726 0-1.431 0.087-2.107 0.25-3.092 0.628-5.786 2.27-7.743 4.561-2.109 2.061-3.408 4.91-3.408 8.063 0 2.933 1.124 5.603 2.965 7.604l108.909 92.773c4.776 4.072 7.785 10.094 7.785 16.818 0 12.183-9.876 22.059-22.059 22.059-5.458 0-10.453-1.982-14.305-5.266l-92.191-78.543c-1.431-1.198-3.292-1.926-5.322-1.926-0.071 0-0.141 0.001-0.211 0.003h-1.293c-3.474 0.469-6.469 2.221-8.546 4.755-2.129 2.068-3.439 4.928-3.439 8.094 0 2.979 1.16 5.688 3.053 7.698l76.143 64.661c4.776 4.072 7.785 10.094 7.785 16.818 0 12.183-9.876 22.059-22.059 22.059-5.458 0-10.453-1.982-14.305-5.266l-76.18-64.704c-11.374-10.162-18.5-24.873-18.5-41.248 0-14.055 5.25-26.884 13.896-36.633 4.080-4.807 8.893-8.928 14.275-12.208l1.81-1.078-0.434-1.738c-1.109-4.23-1.746-9.086-1.746-14.090 0-31.683 25.528-57.403 57.137-57.714 1.581 0 3.319 0 5.367 0h1.8l0.683-1.676c2.485-6.31 5.772-11.751 9.814-16.532 9.115-10.784 22.142-18.158 36.892-19.933 2.262-0.295 4.56-0.447 6.895-0.447 7.859 0 15.313 1.733 22.002 4.837l1.663 0.796 1.055-1.924c1.974-3.357 4.066-6.259 6.394-8.95 10.414-12.365 25.966-20.243 43.362-20.342 0.128-0.001 0.259-0.001 0.391-0.001 12.892 0 24.688 4.697 33.768 12.472l174.382 148.080c16.198 13.157 96.752 81.982 95.635 146.153v0 0.496c-0.564 9.275-3.956 17.662-9.316 24.417l-114.868 135.761 33.885 28.734 119.653-141.064c4.072-4.776 10.094-7.785 16.818-7.785 12.183 0 22.059 9.876 22.059 22.059 0 5.458-1.982 10.453-5.266 14.305zM372.364 646.964l-85.954-135.23c-2.207-3.385-3.52-7.528-3.52-11.978 0-12.227 9.912-22.138 22.138-22.138 7.777 0 14.617 4.010 18.566 10.075l86.813 137.177 1.738-0.559c8.561-2.951 18.425-4.655 28.688-4.655 0.060 0 0.12 0 0.179 0 12.685 0.078 24.789 2.508 35.921 6.875l0.437 0.2 39.346-24.824 39.843-26.81-15.391-22.404-2.234-3.537-56.475 33.078-1.552 0.683c-2.77 1.329-6.021 2.105-9.454 2.105-7.857 0-14.763-4.067-18.73-10.21l-0.798-1.639c-6.562-10.82-17.132-18.651-29.602-21.476-3.346-0.78-6.83-1.193-10.411-1.193-2.548 0-5.047 0.209-7.48 0.611-0.265 0.010-0.881 0.037-1.504 0.037s-1.239-0.027-1.848-0.079c0.044 0.006 0.003 0.006-0.038 0.006-12.168 0-22.032-9.864-22.032-22.032 0-11.004 8.068-20.125 18.612-21.768 4.39-0.733 9.304-1.143 14.315-1.143 24.917 0 47.467 10.134 63.754 26.506l1.307 1.307 47.725-27.927c5.334-3.744 11.96-5.983 19.11-5.983 2.53 0 4.995 0.28 7.365 0.812 12.809 3.247 18.891 13.984 23.297 21.865 0.993 1.8 1.924 3.413 3.041 5.213l25.383 36.181c2.659 4.198 4.238 9.31 4.238 14.79 0 9.7-4.945 18.245-12.452 23.251l-53.598 36.059-49.648 31.465c-3.615 2.275-8.011 3.625-12.723 3.625-4.457 0-8.632-1.208-12.215-3.314-7.145-4.060-15.827-6.498-25.078-6.517-8.863 0.007-17.181 2.306-24.402 6.337l-0.366 0.304c-1.106 1.062-2.324 2.023-3.629 2.86l-71.713 45.733c-3.517 2.254-7.808 3.595-12.411 3.6-8.659-0.045-16.262-4.515-20.671-11.262l-112.326-173.492c-2.207-3.385-3.52-7.528-3.52-11.978 0-12.227 9.912-22.138 22.138-22.138 7.777 0 14.617 4.010 18.566 10.075l101.832 157.285z" />
<glyph unicode="&#xe938;" glyph-name="logo-fdpo" d="M492.265 236.744h-87.878c-34.817 0.071-63.018 28.294-63.054 63.112v342.578c0 13.71-11.114 24.824-24.824 24.824s-24.824-11.114-24.824-24.824v-342.575c0.071-62.25 50.515-112.694 112.757-112.764h87.822c13.71 0 24.824 11.114 24.824 24.824s-11.114 24.824-24.824 24.824zM412.951 616.617h47.538c13.71 0 24.824 11.114 24.824 24.824s-11.114 24.824-24.824 24.824h-47.538c-13.71 0-24.824-11.114-24.824-24.824s11.114-24.824 24.824-24.824zM712.021 666.265h-166.509c-13.71 0-24.824-11.114-24.824-24.824s11.114-24.824 24.824-24.824h166.509c13.71 0 24.824 11.114 24.824 24.824s-11.114 24.824-24.824 24.824zM712.021 583.6h-47.6c-13.71 0-24.824-11.114-24.824-24.824s11.114-24.824 24.824-24.824h47.6c13.71 0 24.824 11.114 24.824 24.824s-11.114 24.824-24.824 24.824zM412.951 533.952h166.509c13.71 0 24.824 11.114 24.824 24.824s-11.114 24.824-24.824 24.824h-166.509c-13.71 0-24.824-11.114-24.824-24.824s11.114-24.824 24.824-24.824zM712.021 501.246h-105.503c-13.71 0-24.824-11.114-24.824-24.824s11.114-24.824 24.824-24.824h105.503c13.71 0 24.824 11.114 24.824 24.824s-11.114 24.824-24.824 24.824zM518.454 501.246h-105.503c-13.71 0-24.824-11.114-24.824-24.824s11.114-24.824 24.824-24.824h105.503c13.71 0 24.824 11.114 24.824 24.824s-11.114 24.824-24.824 24.824zM715.435 348.825c-13.71 0-24.824-11.114-24.824-24.824 0-27.42-22.228-49.648-49.648-49.648s-49.648 22.228-49.648 49.648c0 27.42 22.228 49.648 49.648 49.648 13.71 0 24.824 11.114 24.824 24.824s-11.114 24.824-24.824 24.824c-0.111 0-0.243 0.001-0.375 0.001-54.84 0-99.297-44.457-99.297-99.297 0-22.249 7.317-42.788 19.677-59.344l-0.187-111.882c0-0.009 0-0.019 0-0.029 0-13.71 11.114-24.824 24.824-24.824 3.005 0 5.885 0.534 8.55 1.512l47.366 16.949 51.759-17.191c2.334-0.801 5.023-1.264 7.82-1.264 13.71 0 24.824 11.114 24.824 24.824 0 0.008 0 0.016 0 0.024v118.348c0 0.496 0 0.993 0 1.489 9.077 14.652 14.458 32.421 14.46 51.448-0.035 13.684-11.136 24.763-24.824 24.763-0.044 0-0.087 0-0.131 0zM676.461 187.095l-27.245 9.061c-2.414 0.861-5.198 1.358-8.099 1.358s-5.685-0.497-8.273-1.412l-22.23-7.952v41.208c9-2.993 19.361-4.72 30.125-4.72 12.852 0 25.13 2.462 36.387 6.94zM831.612 646.282v9.061c-0.071 62.25-50.515 112.694-112.757 112.764h-402.966c-70.811-0.559-124.121-58.275-124.121-129.21 0-0.031 0-0.067 0-0.103 0-33.319 12.629-63.688 33.362-86.581 4.464-4.931 11.031-8.085 18.334-8.085 13.711 0 24.827 11.115 24.827 24.827 0 6.408-2.428 12.249-6.414 16.654-12.685 14.006-20.461 32.704-20.461 53.217 0 0.025 0 0.050 0 0.076 0 43.935 31.341 79.62 75.28 79.62h401.842c0.074 0 0.161 0 0.248 0 34.892 0 63.178-28.286 63.178-63.178 0 0 0 0 0-0.001v-355.483c-0.038-0.474-0.059-1.026-0.059-1.583s0.022-1.109 0.064-1.655c-0.515-11.749-4.194-22.617-10.207-31.821-2.451-3.455-4.007-8.051-4.007-13.010 0-5.814 2.137-11.128 5.669-15.2l2.706-3.012c4.211-4.682 10.288-7.613 17.051-7.613 7.844 0 14.766 3.943 18.894 9.956 12.555 17.868 20.034 39.98 20.034 63.838 0 0.035 0 0.070 0 0.106v341.328c-0.002 1.801-0.182 3.56-0.525 5.259z" />
<glyph unicode="&#xe939;" glyph-name="logo-fspo" d="M674.288 710.142l-47.414-31.030c-3.083-2.042-5.619-4.657-7.51-7.713l-62.68-102.382c-2.249-3.663-3.582-8.098-3.582-12.845 0-7.175 3.044-13.639 7.911-18.171l0.636-0.51c0.962-0.877 2.016-1.694 3.132-2.424l0.095-0.058c29.576-18.010 49.025-50.079 49.025-86.69 0-47.79-33.14-87.84-77.692-98.423-11.826-2.741-19.996-12.587-19.996-24.341 0-13.71 11.114-24.824 24.824-24.824 0.025 0 0.049 0 0.074 0 0.017 0 0.041 0 0.065 0 1.956 0 3.859 0.226 5.684 0.654 67.132 16.056 116.393 75.692 116.393 146.834 0 45.531-20.177 86.349-52.078 114l47.599 78.356 25.879 16.943 36.926-36.926-20.294-30.534c-2.542-3.833-4.057-8.539-4.057-13.599 0-3.423 0.693-6.684 1.946-9.65l29.169-70.462c3.166-7.532 9.725-13.088 17.71-14.803l35.848-7.477v-52.193l-35.685-7.447c-8.149-1.744-14.708-7.301-17.812-14.669l-29.292-70.788c-1.192-2.804-1.884-6.064-1.884-9.487 0-5.060 1.514-9.767 4.114-13.692l19.926-30.442-36.926-36.926-30.286 20.294c-3.833 2.542-8.539 4.057-13.599 4.057-3.423 0-6.684-0.693-9.65-1.946l-70.462-29.418c-7.532-3.166-13.088-9.725-14.803-17.71l-7.415-35.662h-52.255l-3.848 18.618c-2.393 11.409-12.371 19.853-24.321 19.853-13.71 0-24.824-11.114-24.824-24.824 0-1.844 0.201-3.642 0.583-5.371l7.975-38.127c2.394-11.285 12.208-19.654 24.002-19.797h93.107c0.009 0 0.020 0 0.031 0 11.908 0 21.858 8.385 24.268 19.572l8.656 42.489 46.359 19.239 36.43-23.893c3.815-2.51 8.492-4.003 13.518-4.003 6.835 0 13.025 2.762 17.514 7.231l65.473 65.473c4.468 4.488 7.23 10.678 7.23 17.513 0 5.026-1.494 9.703-4.061 13.612l-23.773 36.336 19.363 46.545 42.636 8.875c11.148 2.547 19.352 12.345 19.425 24.071v93.099c0 0.009 0 0.020 0 0.031 0 11.908-8.385 21.858-19.572 24.268l-42.489 8.656-19.239 46.359 23.893 36.43c2.51 3.815 4.003 8.492 4.003 13.518 0 6.835-2.762 13.025-7.231 17.514l-65.535 65.597c-4.488 4.468-10.678 7.23-17.513 7.23-5.026 0-9.703-1.494-13.612-4.061zM465.455 767.61c-0.009 0-0.020 0-0.031 0-11.908 0-21.858-8.385-24.268-19.572l-8.656-42.489-46.359-19.177-36.43 23.831c-3.815 2.51-8.492 4.003-13.518 4.003-6.835 0-13.025-2.762-17.514-7.231l-65.597-65.535c-4.468-4.488-7.23-10.678-7.23-17.513 0-5.026 1.494-9.703 4.061-13.612l23.773-36.336-19.239-46.483-42.636-8.875c-11.148-2.547-19.352-12.345-19.425-24.071v-93.099c0-0.009 0-0.020 0-0.031 0-11.908 8.385-21.858 19.572-24.268l42.489-8.656 19.239-46.359-23.831-36.43c-2.51-3.815-4.003-8.492-4.003-13.518 0-6.835 2.762-13.025 7.231-17.514l65.473-65.473c4.488-4.468 10.678-7.23 17.513-7.23 5.026 0 9.703 1.494 13.612 4.061l47.32 30.972c3.083 2.042 5.619 4.657 7.51 7.713l63.053 103.189c2.258 3.668 3.596 8.112 3.596 12.869 0 8.936-4.721 16.769-11.805 21.141l-0.107 0.061c-28.782 18.165-47.621 49.798-47.621 85.83 0 47.125 32.224 86.724 75.839 97.964 11.795 2.791 19.919 12.615 19.919 24.336 0 13.71-11.114 24.824-24.824 24.824-2.288 0-4.503-0.309-6.607-0.889-65.827-16.992-113.8-75.993-113.8-146.199 0-45.135 19.828-85.639 51.249-113.277l-48.115-79.21-25.879-16.943-37.236 36.926 20.542 30.596c2.542 3.833 4.057 8.539 4.057 13.599 0 3.423-0.693 6.684-1.946 9.65l-29.418 70.462c-3.166 7.532-9.725 13.088-17.71 14.803l-35.662 7.415v52.255l35.747 7.447c8.137 1.732 14.692 7.264 17.812 14.608l29.292 70.787c1.192 2.804 1.884 6.064 1.884 9.487 0 5.060-1.514 9.767-4.114 13.692l-19.926 30.442 37.236 36.926 29.975-20.232c3.833-2.542 8.539-4.057 13.599-4.057 3.423 0 6.684 0.693 9.65 1.946l70.462 29.418c7.507 3.181 13.039 9.737 14.741 17.711l7.476 35.661h52.255l4.282-20.542c2.202-11.642 12.293-20.328 24.414-20.328 13.71 0 24.824 11.114 24.824 24.824 0 1.993-0.235 3.931-0.679 5.789l-8.344 40.108c-2.398 11.306-12.244 19.684-24.067 19.797z" />
<glyph unicode="&#xe93a;" glyph-name="logo-i03" d="M515.475 377.994c-36.682 0.035-66.405 29.78-66.405 66.467 0 36.709 29.758 66.467 66.467 66.467s66.467-29.758 66.467-66.467c-0.035-36.716-29.808-66.467-66.529-66.467zM515.475 464.568c-11.071 0-20.046-8.975-20.046-20.046s8.975-20.046 20.046-20.046c11.071 0 20.046 8.975 20.046 20.046-0.035 11.057-8.989 20.010-20.042 20.046zM470.481 314.568c-3.275 0.003-6.389 0.688-9.21 1.92-50.088 21.541-84.626 70.604-84.626 127.734 0 0.084 0 0.168 0 0.252 0 12.806 10.392 23.198 23.211 23.198s23.211-10.392 23.211-23.211c0-0.034 0-0.074 0-0.115 0-38.048 23.011-70.722 55.875-84.865 9.123-3.793 15.002-12.062 15.002-21.704 0-12.819-10.392-23.211-23.211-23.211-0.089 0-0.177 0-0.266 0.001zM571.64 320.091c-12.784 0.046-23.13 10.42-23.13 23.211 0 8.639 4.72 16.175 11.721 20.172 16.106 9.108 28.839 22.28 37.108 38.149 4.194 8.144 12.031 13.27 21.064 13.27 12.907 0 23.37-10.463 23.37-23.37 0-3.873-0.942-7.526-2.61-10.742-12.713-24.418-31.812-44.155-55.104-57.351-3.954-2.235-7.867-3.341-12.038-3.341-0.134 0-0.267 0.001-0.401 0.003zM624.33 460.534c-10.011 0.004-18.541 6.345-21.794 15.23-13.287 36.085-47.221 61.242-87.031 61.242-23.554 0-45.051-8.806-61.378-23.306-4.005-3.59-9.45-5.836-15.42-5.836-12.866 0-23.295 10.43-23.295 23.295 0 6.896 2.996 13.092 7.758 17.358 24.408 21.694 56.711 34.934 92.107 34.934 59.801 0 110.775-37.794 130.34-90.799 1.171-3.29 1.668-5.978 1.668-8.782 0-12.816-10.387-23.206-23.202-23.211zM512 242.764c-123.439 0-238.437 70.377-315.578 193.133-2.257 3.516-3.598 7.808-3.598 12.412s1.341 8.896 3.653 12.505c19.168 30.302 40.152 56.711 63.633 80.665 4.068 3.829 9.669 6.231 15.832 6.231 12.819 0 23.211-10.392 23.211-23.211 0-6.024-2.295-11.512-6.058-15.637-17.888-18.174-34.217-38.031-48.681-59.26 67.316-102.824 164.255-160.54 267.275-160.54 54.106 0.193 104.608 15.45 147.581 41.792 2.25 1.507 6.502 2.822 11.062 2.822 12.819 0 23.211-10.392 23.211-23.211 0-8.678-4.762-16.243-11.816-20.226-48.507-29.679-107.041-47.289-169.676-47.474zM745.472 346.094c-0.002 0-0.003 0-0.005 0-12.819 0-23.211 10.392-23.211 23.211 0 6.395 2.587 12.187 6.771 16.385 18.545 18.719 35.39 39.191 50.244 61.122-67.311 102.841-164.25 160.558-267.27 160.558-54.996-0.209-106.271-15.961-149.712-43.086-2.083-1.189-6.019-2.303-10.215-2.303-12.819 0-23.211 10.392-23.211 23.211 0 8.187 4.239 15.384 10.642 19.516 49.14 30.679 108.671 48.905 172.447 49.083 123.487 0 238.485-70.377 315.626-193.133 2.257-3.516 3.598-7.808 3.598-12.412s-1.341-8.896-3.653-12.505c-19.662-31.224-41.33-58.417-65.645-82.985-4.141-4.102-9.897-6.662-16.251-6.662-0.054 0-0.109 0-0.163 0.001z" />
<glyph unicode="&#xe93b;" glyph-name="job" horiz-adv-x="896" d="M523.093 74.665c-9.891-1.987-17.236-10.604-17.236-20.936 0-1.423 0.139-2.814 0.405-4.159 0.657-3.221 1.045-7.078 1.045-11.027 0-0.126 0-0.251-0.001-0.377 0 0 0-0.022 0-0.045 0-32.754-26.552-59.307-59.307-59.307s-59.307 26.552-59.307 59.307c0 32.754 26.552 59.307 59.307 59.307 4.229 0 8.355-0.443 12.334-1.284 0.895-0.2 2.369-0.354 3.879-0.354 12.015 0 21.756 9.74 21.756 21.756 0 10.505-7.446 19.272-17.349 21.309-6.432 1.381-13.659 2.158-21.068 2.158-0.143 0-0.285 0-0.428-0.001 0.018 0 0.013 0 0.009 0-56.318 0-101.973-45.655-101.973-101.973s45.655-101.973 101.973-101.973c56.318 0 101.973 45.655 101.973 101.973 0 6.944-0.694 13.726-2.017 20.28-2.246 8.757-10.629 15.617-20.614 15.617-1.194 0-2.366-0.098-3.507-0.287zM755.84 597.331c-5.325 5.526-12.79 8.959-21.057 8.959-1.756 0-3.475-0.155-5.146-0.452l-526.33-91.707c-15.261 25.262-25.37 55.252-28.108 87.346l558.668 91.428c13.902 2.424 24.335 14.401 24.335 28.814 0 2.805-0.395 5.517-1.133 8.085-39.978 134.067-162.341 230.291-307.178 230.291-139.327 0-257.857-89.042-301.788-213.325-1.273-4.092-1.608-6.223-1.608-8.431 0-11.782 9.551-21.333 21.333-21.333 9.022 0 16.736 5.6 19.855 13.514 38.709 109.822 141.447 187.014 262.214 187.014 120.132 0 222.424-76.382 260.96-183.23l-552.778-91.533c-14.849-2.446-26.037-15.188-26.037-30.543 0-0.287 0.004-0.573 0.012-0.859 1.694-47.037 15.847-90.485 39.234-127.519 4.385-8.465 14.207-14.845 25.519-14.845 1.541 0 3.054 0.118 4.53 0.346l515.035 91.712c-10.092-33.265-25.024-62.214-44.247-87.752l-398.42-74.594c-13.614-2.566-23.775-14.365-23.775-28.537 0-6.718 2.284-12.904 6.117-17.822l93.391-121.109c22.251-28.479 56.57-46.639 95.133-46.72h9.187c0.106 0 0.232-0.001 0.357-0.001 38.005 0 71.864 17.746 93.745 45.404l70.804 90.063c2.664 3.521 4.267 7.973 4.267 12.8 0 11.782-9.551 21.333-21.333 21.333-6.955 0-13.133-3.329-17.028-8.48l-70.226-89.654c-14.228-17.996-36.059-29.44-60.563-29.44-0.083 0-0.167 0-0.25 0h-9.16c-24.599 0.525-46.325 12.378-60.236 30.534l-79.924 103.866 381.44 72.107c7.225 1.353 13.378 5.205 17.66 10.606 28.18 35.978 49.038 79.001 59.589 125.923 0.76 3.836 0.964 5.789 0.964 7.789 0 7.748-3.059 14.781-8.036 19.957z" />
<glyph unicode="&#xe93c;" glyph-name="fb" d="M796.77 678.642c-6.25-4.473-10.274-11.709-10.274-19.886 0-5.245 1.656-10.103 4.474-14.080 38.944-54.66 62.293-122.893 62.293-196.58 0-188.513-152.82-341.333-341.333-341.333s-341.333 152.82-341.333 341.333c0 188.513 152.82 341.333 341.333 341.333 66.16 0 127.924-18.823 180.228-51.406 2.762-2.711 8.245-4.868 14.231-4.868 13.465 0 24.381 10.916 24.381 24.381 0 10.335-6.431 19.169-15.51 22.717-58.253 36.273-128.781 57.746-204.324 57.746-215.444 0-390.095-174.652-390.095-390.095s174.652-390.095 390.095-390.095c215.444 0 390.095 174.652 390.095 390.095 0 84.272-26.722 162.303-72.156 226.081-3.684 4.799-10.771 8.636-18.755 8.636-4.967 0-9.588-1.485-13.441-4.036zM540.282 265.141v166.766h56.076l8.29 64.853h-64.366v41.448c0 18.773 5.12 31.695 32.183 31.695h34.377v58.27c-14.895 1.708-32.157 2.682-49.647 2.682-0.203 0-0.406 0-0.609 0-1.602 0.121-3.506 0.191-5.427 0.191-43.223 0-78.263-35.039-78.263-78.263 0-2.557 0.123-5.085 0.362-7.578l-0.025-48.445h-56.076v-65.097h56.076v-166.522z" />
<glyph unicode="&#xe93d;" glyph-name="person" horiz-adv-x="967" d="M483.556-7.113c-227.044 0-398.222 67.243-398.222 156.444 0.265 82.713 51.878 153.304 124.62 181.589 58.619 22.074 101.4 45.967 125.009 69.576 3.124 3.346 7.562 5.432 12.486 5.432 9.426 0 17.067-7.641 17.067-17.067 0-4.925-2.086-9.362-5.422-12.477-27.43-27.43-73.112-53.314-135.804-76.923-61.066-23.719-103.608-81.929-103.822-150.103 0-57.883 149.504-122.338 364.089-122.338s363.577 64.228 364.089 122.027c0 0.041 0 0.090 0 0.138 0 66.167-40.43 122.892-97.935 146.816-57.6 23.144-108.288 50.962-140.145 75.993-23.392 18.521-43.359 40.008-59.721 64.139-2.93 4.457-4.294 8.703-4.294 13.267 0 1.803 0.213 3.556 0.615 5.235 1.409 6.018 5.206 11.116 10.336 14.24 57.9 35.1 94.877 109.511 94.877 189.611 0 116.053-75.264 210.489-167.822 210.489s-167.822-94.436-167.822-210.489 75.264-210.489 167.822-210.489c9.426 0 17.067-7.641 17.067-17.067s-7.641-17.067-17.067-17.067c-111.388 0-201.956 109.739-201.956 244.622s90.567 244.622 201.956 244.622 201.956-109.739 201.956-244.622c0-88.462-38.457-168.505-101.148-212.139 13.516-18.018 28.737-33.656 45.73-47.16 29.989-23.553 77.719-49.381 131.365-71.283 71.108-29.455 120.236-98.267 120.32-178.563v-2.855c-3.641-87.78-173.625-153.6-398.222-153.6z" />
<glyph unicode="&#xe93e;" glyph-name="logo-i01" d="M806.788 742.786c-15.382 15.359-36.619 24.857-60.075 24.857s-44.693-9.498-60.076-24.858l-100.537-100.537-265.123 67.894c-1.829 0.482-3.928 0.759-6.092 0.759-6.702 0-12.783-2.656-17.249-6.972l-69.191-69.315c-4.422-4.424-7.157-10.536-7.157-17.285 0-9.773 5.734-18.207 14.021-22.122l142.888-66.716c3.020-1.436 6.563-2.275 10.302-2.275 13.51 0 24.462 10.952 24.462 24.462 0 9.771-5.729 18.204-14.011 22.123l-111.113 52.070 34.506 34.506 265.371-67.77c1.829-0.482 3.928-0.759 6.092-0.759 6.702 0 12.783 2.656 17.249 6.972l110.399 110.399c6.445 6.147 15.193 9.93 24.824 9.93 19.88 0 35.995-16.116 35.995-35.995 0-9.631-3.783-18.379-9.943-24.839l-110.144-110.081c-4.437-4.429-7.181-10.551-7.181-17.315 0-13.512 10.953-24.465 24.465-24.465 6.748 0 12.858 2.732 17.284 7.15l110.033 110.281c15.285 15.369 24.733 36.556 24.733 59.951s-9.448 44.582-24.737 59.954zM727.723 439.372c-2.779 10.682-12.337 18.44-23.707 18.44-13.509 0-24.46-10.951-24.46-24.46 0-2.139 0.274-4.213 0.79-6.19l42.908-168.759-34.382-34.568-96.194 207.407c-3.978 8.436-12.412 14.17-22.185 14.17-6.75 0-12.861-2.735-17.286-7.157l-92.656-92.656c-4.436-4.417-7.181-10.53-7.181-17.284 0-1.702 0.174-3.364 0.506-4.967l19.46-97.215-31.465-31.465-54.241 116.984c-2.484 5.279-6.636 9.432-11.767 11.852l-117.195 54.366 31.465 31.465 97.311-19.549c1.461-0.311 3.141-0.489 4.861-0.489 6.759 0 12.876 2.749 17.293 7.191l89.12 89.12c4.421 4.424 7.156 10.535 7.156 17.284s-2.734 12.86-7.156 17.284c-4.467 4.352-10.578 7.035-17.315 7.035s-12.848-2.684-17.32-7.041l-79.867-79.805-97.311 19.549c-1.44 0.301-3.094 0.474-4.789 0.474-6.759 0-12.878-2.743-17.304-7.176l-65.474-65.536c-4.448-4.429-7.2-10.557-7.2-17.328 0-9.79 5.753-18.236 14.063-22.142l140.841-65.227 65.164-140.691c3.969-8.459 12.415-14.213 22.205-14.213 6.771 0 12.899 2.752 17.327 7.199l65.475 65.475c4.436 4.417 7.181 10.53 7.181 17.284 0 1.702-0.174 3.364-0.506 4.967l-19.46 97.215 58.585 58.585 96.070-207.407c3.978-8.436 12.412-14.17 22.185-14.17 6.75 0 12.861 2.735 17.286 7.157l69.197 69.508c4.31 4.459 6.965 10.541 6.965 17.242 0 2.164-0.277 4.264-0.797 6.265z" />
<glyph unicode="&#xe93f;" glyph-name="file-doc" d="M896 805.971l-152.96 137.6c-11.255 10.16-26.23 16.388-42.659 16.427h-529.715c-35.346 0-64-28.654-64-64v-896c0-35.346 28.654-64 64-64h682.667c35.346 0 64 28.654 64 64v758.4c-0.039 18.878-8.246 35.832-21.274 47.521zM874.667-0.002c0-11.782-9.551-21.333-21.333-21.333h-682.667c-11.782 0-21.333 9.551-21.333 21.333v896c0 11.782 9.551 21.333 21.333 21.333h512v-170.667c0-23.564 19.103-42.667 42.667-42.667h64c11.782 0 21.333 9.551 21.333 21.333s-9.551 21.333-21.333 21.333h-64v155.52l142.293-128c4.319-3.909 7.025-9.53 7.040-15.784zM771.413 621.225h-88.747c-11.782 0-21.333-9.551-21.333-21.333s9.551-21.333 21.333-21.333h16.853l-80.853-322.56-85.333 349.013c-0.417 1.004-0.846 1.845-1.33 2.649-0.501 1.466-1.149 2.804-1.923 4.056-1.682 2.045-3.571 3.933-5.636 5.612-1.103 0.679-2.299 1.254-3.55 1.715-0.982 0.501-1.969 0.934-2.994 1.286l-5.901 0.042c-0.64 0.068-1.382 0.107-2.133 0.107s-1.494-0.039-2.225-0.115l0.092 0.008c-1.086-0.407-2-0.838-2.873-1.332-1.375-0.514-2.64-1.16-3.825-1.919-2.050-1.685-3.938-3.574-5.619-5.638-0.777-1.231-1.425-2.569-1.929-3.975-0.481-0.864-0.91-1.705-1.278-2.578l-86.875-348.93-81.067 322.56h17.067c11.782 0 21.333 9.551 21.333 21.333s-9.551 21.333-21.333 21.333h-88.747c-11.782 0-21.333-9.551-21.333-21.333s9.551-21.333 21.333-21.333h27.733l103.68-415.573c2.401-9.349 10.753-16.147 20.693-16.147s18.292 6.798 20.661 15.999l86.646 349.161 86.827-348.8c2.401-9.349 10.753-16.147 20.693-16.147s18.292 6.798 20.661 15.999l103.499 415.935h27.52c11.782 0 21.333 9.551 21.333 21.333s-9.551 21.333-21.333 21.333z" />
</font>
</defs>
</svg>
